1 сезон

3 сезон

iTunes

1

iTunes

DUB Netflix

iTunes

13

1 сезон

RePack

30

Deluxe

pack

Легкие деньги

ВАЖНО

ИГРА 18+

pack

RePack

MK11

RePack

jed

RePack

fifa19

RePack

RDR2

RePack

NEED FOR SPEED™ PAYBACK

4 сезон

9 сезон

Бесстыжие 9 сезон

Все сериалы

все сериалы на PB.wtf

RePack

FAR CRY 5

Anonymous, добрый день, мы не успеваем до 1 числа собрать деньги на оплату серверов, помогите нам пожалуйста в это трудное время. В качестве благодарности мы отключим Вам всю рекламу на сайте (укажите свой ник в строку Ваше имя)!

×
  
Magnet ссылка

Чернобыль: Зона отчуждения. Финал / Фильм: 1-3 из 3 + Фильм о фильме (Дмитрий Киселёв) [2019, Триллер, фантастика, WEB-DLRip] piratbit.org

Чернобыль: Зона отчуждения. Финал через торрент piratbit.org

Размер: 4.75 GB | Добавлен: 1 год 8 мес. назад | Торрент скачан:570 раз
Скачать  

18-09-2019 23:33 Чернобыль: Зона отчуждения. Финал Скачать торрент  

Чернобыль: Зона отчуждения. Финал
Год выпуска: 2019
Страна: Россия
Жанр: Триллер, фантастика
Продолжительность: ~ 01:41:44
Перевод: Не требуется
Субтитры: отсутствуют

Режиссер: Дмитрий Киселёв



В ролях: Константин Давыдов, Кристина Казинская, Сергей Романович, Анвар Халилулаев, Валерия Дмитриева, Евгений Стычкин, Илья Щербинин, Владимир Ильин, Сергей Дрейден, Евгений Сытый, Иван Мулин, Александр Яценко, Артём Сучков

Описание: «Чернобыль: Зона отчуждения. Финал» поставит точку в истории пятерых подростков, попытавшихся предотвратить самую известную в мире техногенную катастрофу. Им придётся вернуться, туда, откуда все начиналось – в Чернобыль, чтобы разгадать тайну происхождения Зоны отчуждения. Полнометражный фильм даст ответы на все загадки и интриги, а его создатели обещают выкрутить до максимума динамичность действия, зрелищность экшен-сцен и качество визуальных спецэффектов.

Качество: WEB-DLRip
Формат: AVI

Видео: XviD, 1730 Кбит/с, 720x304
Аудио: AC3, 2 ch, 192 Кбит/с
скриншот  скриншот  скриншот  скриншот  

Общее
Полное имя : C:\Chernobyl.Zona.otchuzhdeniya.Final.2019.WEB-DLRip.25Kuzmich\Chernobyl.Zona.otchuzhdeniya.Final.(1.film.iz.3).WEB-DLRip.25Kuzmich.avi
Формат : AVI
Формат/Информация : Audio Video Interleave
Размер файла : 1,37 Гбайт
Продолжительность : 1 ч. 41 м.
Общий поток : 1930 Кбит/сек
Программа кодирования : VirtualDubMod 1.5.10.3 | www.virtualdub-fr.org || (build 2550/release)
Библиотека кодирования : VirtualDubMod build 2550/release

Видео
Идентификатор : 0
Формат : MPEG-4 Visual
Профиль формата : Advanced Simple@L5
Настройки формата : BVOP1
Параметр BVOP формата : 1
Параметр QPel формата : Нет
Параметр GMC формата : Без точки перехода
Параметр матрицы формата : Default (MPEG)
Идентификатор кодека : XVID
Идентификатор кодека/Подсказка : XviD
Продолжительность : 1 ч. 41 м.
Битрейт : 1730 Кбит/сек
Ширина : 720 пикселей
Высота : 304 пикселя
Соотношение сторон : 2,35:1
Частота кадров : 25,000 кадров/сек
Цветовое пространство : YUV
Субдискретизация насыщенности : 4:2:0
Битовая глубина : 8 бит
Тип развёртки : Прогрессивная
Метод сжатия : С потерями
Бит/(Пиксели*Кадры) : 0.302
Размер потока : 1,17 Гбайт (86%)
Библиотека кодирования : XviD 73

Аудио
Идентификатор : 1
Формат : AC-3
Формат/Информация : Audio Coding 3
Коммерческое название : Dolby Digital
Идентификатор кодека : 2000
Продолжительность : 1 ч. 41 м.
Вид битрейта : Постоянный
Битрейт : 192 Кбит/сек
Каналы : 2 канала
ChannelLayout : L R
Частота : 48,0 КГц
Частота кадров : 31,250 кадров/сек (1536 SPF)
Битовая глубина : 16 бит
Метод сжатия : С потерями
Размер потока : 140 Мбайт (10%)
Выравнивание : Разделение по промежуткам
ServiceKind/String : Complete Main

Раздача ведётся путём добавления новых серий, при каждом добавлении создаётся новый торрент. Чтобы начать докачку новой серии, пользователям необходимо сделать следующее:

- Остановить скачивание.
- Удалить старый торрент у себя из клиента (старые серии удалять не надо).
- Скачать новый торрент и запустить его у себя в клиенте вместо старого, при этом указать клиенту путь в старую папку куда и должно происходить скачивание новых серий.

Ваш клиент при этом должен произвести хеширование (проверку) старой папки (если не производит сам - помогите ему сделать это), и будет докачивать только те серии которых у вас ещё нет. Старые серии при этом не удаляются, а продолжают раздаваться!
Если вы уже удалили старые серии, то предотвратить повторную закачку старых серий можно, отжав галочку в соответствующих местах при запуске нового торрента. По возможности, желательно не удалять старые серии как можно дольше, чтобы релизер не столько продолжал раздавать старые серии, а смог сконцентрироваться на новых.
piratbit.org



Скачать Чернобыль: Зона отчуждения. Финал через торрент https://img16.lostpic.net/2019/09/19/40ee9e2d62f529794c6dcb26d284346d.jpg Скачать фильм Чернобыль: Зона отчуждения. Финал через торрент бесплантно в хорошем качестве Описание: «Чернобыль: Зона отчуждения. Финал» поставит точку в истории пятерых подростков, попытавшихся предотвратить самую известную в ... 9.6 10 23
Info! Золотая раздача, скачанное не засчитывается.
Торрент: Зарегистрирован [2019-10-02 22:52] · скачан: 570 раз
Статус: √ проверено
Размер: 4.75 GB
Как cкачать? Как скачать Чернобыль: Зона отчуждения. Финал через торрент | UTorrent

% Раздел Тема Автор DL S | L
TNT serials [ 12.79 GB ] Чернобыль: Зона отчуждения. Финал / Фильм: 1-3 из 3 + Фильм о фильме [2019 WEB-DL 1080p] bober100 Скачать
3 | 0
TNT serials [ 6.7 GB ] Чернобыль: Зона отчуждения. Финал / Фильм: 1-3 из 3 + Фильм о фильме [2019 WEB-DLRip-AVC] bober100 Скачать
1 | 1
TNT serials [ 8.88 GB ] Чернобыль: Зона отчуждения. Финал / Фильм: 1-3 из 3 + Фильм о фильме [2019 WEB-DL 720p] bober100 Скачать
2 | 0

28-11-2019 20:33  

Отключить всю рекламу на сайте

16-07-2020 19:44 Чернобыль: Зона отчуждения. Финал Скачать торрент  

какая унылая, плохая игра актеров. просто ужасpiratbit.org



    Дорогой пользователь! Огромная просьба, поблагодарите релизера, оцените раздачу и оставьте свои комментарий, если Вы скачали Чернобыль: Зона отчуждения. Финал через торрент бесплатно! Внесите свою лепту в развитие PiratBit!
    Комментировать посты могут только пользователи прошедшие не сложную регистрацию
    Показать сообщения:    

    Чернобыль: Зона отчуждения. Финал через торрент
    Скачать бесплатно Чернобыль: Зона отчуждения. Финал
    Чернобыль: Зона отчуждения. Финал скачать торрент
    Чернобыль: Зона отчуждения. Финал смотреть онлайн
    Cкачать фильм Чернобыль: Зона отчуждения. Финал бесплатно
    Чернобыль: Зона отчуждения. Финал скачать торрент в хорошем качестве
    Чернобыль: Зона отчуждения. Финал смотреть онлайн бесплатно в хорошем качестве


    Вы не можете начинать темы
    Вы не можете отвечать на сообщения
    Вы не можете редактировать свои сообщения
    Вы не можете удалять свои сообщения
    Вы не можете голосовать в опросах
    Вы не можете прикреплять файлы к сообщениям
    Вы можете скачивать файлы