MEGA NEWS Получи личный уникальный адрес сайта и защити себя от блокировок. Внимание количество ограничено!!!

iTunes

1+1

iTunes

мы

iTunes

1

iTunes

Чернобыль

iTunes

Ральф против интернета

Лицензия

ПШазам

Лицензия

Игра престолов

Лицензия

30
pack

ВАЖНО

!!Акция!!

Alien_RageХит недели

RePack

Resident Evil 21

ИГРА 18+

pack

RePack

Metro:Exodus

!!Акция!!

Alien_Rage

RePack

fifa19

RePack

Assassins Creed: Odyssey

RePack

NEED FOR SPEED™ PAYBACK

3 сезон

9 сезон

Бесстыжие 9 сезон

Все сериалы

все сериалы на PB.wtf

RePack

FAR CRY 5
Ребята, катастрофически не хватает 1900р. для оплаты серверов за АВГУСТ (всвязи с блокировками трафик упал в 3 раза), 1-2р., выручайте.
  

VA - The Best Electronic Album - In The World... Ever! (3CD Box Set) - 2019/ FLAC/ tracks +.cue/ lossless/ Synth-pop, Pop, Rock piratbit.org

VA - The Best Electronic Album - In The World... Ever! через торрент piratbit.org

Раздают: 4 [ 0 KB/s ]
Размер: 1.56 GB | Добавлен: 28 д. назад | Торрент скачан:38 раз
Скачать  

19-09-2019 10:47 VA - The Best Electronic Album - In The World... Ever! Скачать торрент  


VA - The Best Electronic Album - In The World... Ever! (3CD Box Set)


Год издания: 2019
Страна:
Жанр: Synth-pop, Pop, Rock
Продолжительность: 03:47:04
Лейбл издания: Spectrum - Sony Music
Страна-выпуска диска: EU
Номер по каталогу: 5388679
Формат: FLAC
Битрейт аудио: Lossless
Тип рипа: tracks +.cue
Наличие сканов в содержимом раздачи: да


01. The Human League - The Sound Of The Crowd (4:08)
02. Soft Cell - Tainted Love (2:40)
03. Visage - Fade To Grey (3:48)
04. Heaven 17 - Temptation (3:34)
05. Tears For Fears - Mad World (3:34)
06. Japan - Quiet Life (3:52)
07. Orchestral Manoeuvres In The Dark - Messages (4:43)
08. China Crisis - Christian (4:29)
09. The Cure - The Walk (3:30)
10. Simple Minds - Promised You A Miracle (3:57)
11. A Flock Of Seagulls - I Ran (3:39)
12. Yello - The Race (3:19)
13. Joe Jackson - Steppin' Out (4:22)
14. Split Enz - I Got You (3:24)
15. Thompson Twins - Love On Your Side (3:33)
16. Landscape - Einstein A Go-Go (3:00)
17. Trio - Da Da Da (I Don't Love You You Don't Love Me Aha Aha Aha) (3:27)
18. Nik Kershaw - Wouldn't It Be Good (4:12)
19. Fiction Factory - (Feels Like) Heaven (3:34)
20. Lotus Eaters - The First Picture Of You (3:42)

01. Donna Summer - I Feel Love (3:49)
02. Lipps Inc. - Funky Town (3:58)
03. Buggles - Video Killed The Radio Star (3:17)
04. Blondie - Atomic (3:46)
05. Philip Oakey & Giorgio Moroder - Together In Electric Dreams (3:49)
06. Philip Lynott - Yellow Pearl (2:54)
07. Dead Or Alive - You Spin Me Round (Like A Record) (3:11)
08. Marilyn - Calling Your Name (3:56)
09. Altered Images - Don't Talk To Me About Love (3:47)
10. Liza Minnelli - Losing My Mind (4:12)
11. Eighth Wonder - I'm Not Scared (4:30)
12. Abba - The Day Before You Came (5:50)
13. Jan Hammer - Crockett's Theme (3:32)
14. Tom Tom Club - Genius Of Love (3:28)
15. Harold Faltermeyer - Axel F (3:01)
16. Dazz Band - Let It All Blow (3:58)
17. Herbie Hancock - Rockit (3:39)
18. Malcolm McLaren & The World's Famous Supreme Team - Buffalo Gals (3:41)
19. Rock Steady Crew - (Hey You) The Rock Steady Crew (3:47)
20. Ollie & Jerry - Breakin'...There's No Stopping Us (4:33)

01. Yoko Ono - Walking On Thin Ice (6:02)
02. Devo - Whip It (2:38)
03. Martha And The Muffins - Echo Beach (3:32)
04. Furniture - Brilliant Mind (3:41)
05. The Passions - I'm In Love With A German Film Star (3:57)
06. Visage - Mind Of A Toy (3:32)
07. Soft Cell - Torch (4:08)
08. Swansway - Soul Train (3:14)
09. Falco - Rock Me Amadeus (3:14)
10. Sly Fox - Let's Go All The Way (3:50)
11. Animotion - Obsession (3:55)
12. The Human League - Hard Times (4:54)
13. Heaven 17 - Play To Win (3:27)
14. The Fixx - One Thing Leads To Another (3:17)
15. Our Daughter's Wedding - Lawn Chairs (3:26)
16. David Sylvian - Red Guitar (5:11)
17. The Psychedelic Furs - Love My Way (3:34)
18. The Mood - Don't Stop (3:04)
19. New Musik - Living By Numbers (3:27)
20. H2O - Dream To Sleep (3:55)

Код:

Exact Audio Copy V1.3 from 2. September 2016

EAC extraction logfile from 15. September 2019, 15:07

Various / The Best - Electronic Album - In The World... Ever! - CD1

Used drive  : ATAPI   iHAS124   Y   Adapter: 1  ID: 0

Read mode               : Secure
Utilize accurate stream : Yes
Defeat audio cache      : No
Make use of C2 pointers : Yes

Read offset correction                      : 48
Overread into Lead-In and Lead-Out          : No
Fill up missing offset samples with silence : Yes
Delete leading and trailing silent blocks   : No
Null samples used in CRC calculations       : Yes
Used interface                              : Native Win32 interface for Win NT & 2000
Gap handling                                : Not detected, thus appended to previous track

Used output format              : User Defined Encoder
Selected bitrate                : 768 kBit/s
Quality                         : High
Add ID3 tag                     : No
Command line compressor         : C:\Program Files (x86)\Exact Audio Copy\FLAC\FLAC.EXE
Additional command line options : -6 -V -T "ARTIST=%artist%" -T "TITLE=%title%" -T "ALBUM=%albumtitle%" -T "DATE=%year%" -T "TRACKNUMBER=%tracknr%" -T "GENRE=%genre%" -T "COMMENT=%comment%" -T "BAND=%albuminterpret%" -T "ALBUMARTIST=%albuminterpret%" -T "COMPOSER=%composer%" %haslyrics%--tag-from-file=LYRICS="%lyricsfile%"%haslyrics% -T "DISCNUMBER=%cdnumber%" -T "TOTALDISCS=%totalcds%" -T "TOTALTRACKS=%numtracks%" %hascover%--picture="%coverfile%"%hascover% %source% -o %dest%

TOC of the extracted CD

     Track |   Start  |  Length  | Start sector | End sector
    ---------------------------------------------------------
        1  |  0:00.00 |  4:07.73 |         0    |    18597
        2  |  4:07.73 |  2:40.12 |     18598    |    30609
        3  |  6:48.10 |  3:48.22 |     30610    |    47731
        4  | 10:36.32 |  3:34.07 |     47732    |    63788
        5  | 14:10.39 |  3:33.43 |     63789    |    79806
        6  | 17:44.07 |  3:52.32 |     79807    |    97238
        7  | 21:36.39 |  4:43.30 |     97239    |   118493
        8  | 26:19.69 |  4:28.67 |    118494    |   138660
        9  | 30:48.61 |  3:30.18 |    138661    |   154428
       10  | 34:19.04 |  3:57.22 |    154429    |   172225
       11  | 38:16.26 |  3:39.31 |    172226    |   188681
       12  | 41:55.57 |  3:19.25 |    188682    |   203631
       13  | 45:15.07 |  4:21.54 |    203632    |   223260
       14  | 49:36.61 |  3:24.00 |    223261    |   238560
       15  | 53:00.61 |  3:33.17 |    238561    |   254552
       16  | 56:34.03 |  3:00.23 |    254553    |   268075
       17  | 59:34.26 |  3:27.31 |    268076    |   283631
       18  | 63:01.57 |  4:11.59 |    283632    |   302515
       19  | 67:13.41 |  3:34.13 |    302516    |   318578
       20  | 70:47.54 |  3:41.54 |    318579    |   335207

Track  1

     Filename A:\PsPBuRnOuT's MUSIC\THE BEST IN THE WORLD... EVER!\ELECTRONIC ALBUM\ELECTRONIC ALBUM - CD1\01.The Human League - The Sound Of The Crowd.wav

     Peak level 95.9 %
     Extraction speed 9.1 X
     Track quality 100.0 %
     Copy CRC 58590E53
     Track not present in AccurateRip database
     Copy OK

Track  2

     Filename A:\PsPBuRnOuT's MUSIC\THE BEST IN THE WORLD... EVER!\ELECTRONIC ALBUM\ELECTRONIC ALBUM - CD1\02.Soft Cell - Tainted Love.wav

     Peak level 98.4 %
     Extraction speed 9.9 X
     Track quality 100.0 %
     Copy CRC CF8C0D2E
     Track not present in AccurateRip database
     Copy OK

Track  3

     Filename A:\PsPBuRnOuT's MUSIC\THE BEST IN THE WORLD... EVER!\ELECTRONIC ALBUM\ELECTRONIC ALBUM - CD1\03.Visage - Fade To Grey.wav

     Peak level 98.7 %
     Extraction speed 11.0 X
     Track quality 100.0 %
     Copy CRC 5DE88F71
     Track not present in AccurateRip database
     Copy OK

Track  4

     Filename A:\PsPBuRnOuT's MUSIC\THE BEST IN THE WORLD... EVER!\ELECTRONIC ALBUM\ELECTRONIC ALBUM - CD1\04.Heaven 17 - Temptation.wav

     Peak level 98.8 %
     Extraction speed 11.3 X
     Track quality 100.0 %
     Copy CRC 31D664B5
     Track not present in AccurateRip database
     Copy OK

Track  5

     Filename A:\PsPBuRnOuT's MUSIC\THE BEST IN THE WORLD... EVER!\ELECTRONIC ALBUM\ELECTRONIC ALBUM - CD1\05.Tears For Fears - Mad World.wav

     Peak level 95.9 %
     Extraction speed 12.5 X
     Track quality 100.0 %
     Copy CRC 2D1ADE0E
     Track not present in AccurateRip database
     Copy OK

Track  6

     Filename A:\PsPBuRnOuT's MUSIC\THE BEST IN THE WORLD... EVER!\ELECTRONIC ALBUM\ELECTRONIC ALBUM - CD1\06.Japan - Quiet Life.wav

     Peak level 95.9 %
     Extraction speed 13.1 X
     Track quality 100.0 %
     Copy CRC 1645C64B
     Track not present in AccurateRip database
     Copy OK

Track  7

     Filename A:\PsPBuRnOuT's MUSIC\THE BEST IN THE WORLD... EVER!\ELECTRONIC ALBUM\ELECTRONIC ALBUM - CD1\07.Orchestral Manoeuvres In The Dark - Messages.wav

     Peak level 98.5 %
     Extraction speed 13.8 X
     Track quality 100.0 %
     Copy CRC 3D20522A
     Track not present in AccurateRip database
     Copy OK

Track  8

     Filename A:\PsPBuRnOuT's MUSIC\THE BEST IN THE WORLD... EVER!\ELECTRONIC ALBUM\ELECTRONIC ALBUM - CD1\08.China Crisis - Christian.wav

     Peak level 95.9 %
     Extraction speed 14.1 X
     Track quality 100.0 %
     Copy CRC 0181DBC9
     Track not present in AccurateRip database
     Copy OK

Track  9

     Filename A:\PsPBuRnOuT's MUSIC\THE BEST IN THE WORLD... EVER!\ELECTRONIC ALBUM\ELECTRONIC ALBUM - CD1\09.The Cure - The Walk.wav

     Peak level 100.0 %
     Extraction speed 14.6 X
     Track quality 100.0 %
     Copy CRC 8727866D
     Track not present in AccurateRip database
     Copy OK

Track 10

     Filename A:\PsPBuRnOuT's MUSIC\THE BEST IN THE WORLD... EVER!\ELECTRONIC ALBUM\ELECTRONIC ALBUM - CD1\10.Simple Minds - Promised You A Miracle.wav

     Peak level 88.2 %
     Extraction speed 15.2 X
     Track quality 100.0 %
     Copy CRC 421B22EA
     Track not present in AccurateRip database
     Copy OK

Track 11

     Filename A:\PsPBuRnOuT's MUSIC\THE BEST IN THE WORLD... EVER!\ELECTRONIC ALBUM\ELECTRONIC ALBUM - CD1\11.A Flock Of Seagulls - I Ran.wav

     Peak level 95.9 %
     Extraction speed 15.7 X
     Track quality 100.0 %
     Copy CRC 8003AA75
     Track not present in AccurateRip database
     Copy OK

Track 12

     Filename A:\PsPBuRnOuT's MUSIC\THE BEST IN THE WORLD... EVER!\ELECTRONIC ALBUM\ELECTRONIC ALBUM - CD1\12.Yello - The Race.wav

     Peak level 98.8 %
     Extraction speed 15.9 X
     Track quality 99.8 %
     Copy CRC 9D5F0B47
     Track not present in AccurateRip database
     Copy OK

Track 13

     Filename A:\PsPBuRnOuT's MUSIC\THE BEST IN THE WORLD... EVER!\ELECTRONIC ALBUM\ELECTRONIC ALBUM - CD1\13.Joe Jackson - Steppin' Out.wav

     Peak level 100.0 %
     Extraction speed 15.7 X
     Track quality 99.8 %
     Copy CRC 3A0217CF
     Track not present in AccurateRip database
     Copy OK

Track 14

     Filename A:\PsPBuRnOuT's MUSIC\THE BEST IN THE WORLD... EVER!\ELECTRONIC ALBUM\ELECTRONIC ALBUM - CD1\14.Split Enz - I Got You.wav

     Peak level 95.9 %
     Extraction speed 17.9 X
     Track quality 100.0 %
     Copy CRC D4C85928
     Track not present in AccurateRip database
     Copy OK

Track 15

     Filename A:\PsPBuRnOuT's MUSIC\THE BEST IN THE WORLD... EVER!\ELECTRONIC ALBUM\ELECTRONIC ALBUM - CD1\15.Thompson Twins - Love On Your Side.wav

     Peak level 95.9 %
     Extraction speed 18.4 X
     Track quality 100.0 %
     Copy CRC DE097DC3
     Track not present in AccurateRip database
     Copy OK

Track 16

     Filename A:\PsPBuRnOuT's MUSIC\THE BEST IN THE WORLD... EVER!\ELECTRONIC ALBUM\ELECTRONIC ALBUM - CD1\16.Landscape - Einstein A Go-Go.wav

     Peak level 95.9 %
     Extraction speed 17.5 X
     Track quality 100.0 %
     Copy CRC 7775CB40
     Track not present in AccurateRip database
     Copy OK

Track 17

     Filename A:\PsPBuRnOuT's MUSIC\THE BEST IN THE WORLD... EVER!\ELECTRONIC ALBUM\ELECTRONIC ALBUM - CD1\17.Trio - Da Da Da (I Don't Love You You Don't Love Me Aha Aha Aha).wav

     Peak level 97.9 %
     Extraction speed 17.7 X
     Track quality 99.8 %
     Copy CRC F2F723E3
     Track not present in AccurateRip database
     Copy OK

Track 18

     Filename A:\PsPBuRnOuT's MUSIC\THE BEST IN THE WORLD... EVER!\ELECTRONIC ALBUM\ELECTRONIC ALBUM - CD1\18.Nik Kershaw - Wouldn't It Be Good.wav

     Peak level 95.9 %
     Extraction speed 12.5 X
     Track quality 99.8 %
     Copy CRC 00615852
     Track not present in AccurateRip database
     Copy OK

Track 19

     Filename A:\PsPBuRnOuT's MUSIC\THE BEST IN THE WORLD... EVER!\ELECTRONIC ALBUM\ELECTRONIC ALBUM - CD1\19.Fiction Factory - (Feels Like) Heaven.wav

     Peak level 99.7 %
     Extraction speed 16.5 X
     Track quality 99.8 %
     Copy CRC 75886CAE
     Track not present in AccurateRip database
     Copy OK

Track 20

     Filename A:\PsPBuRnOuT's MUSIC\THE BEST IN THE WORLD... EVER!\ELECTRONIC ALBUM\ELECTRONIC ALBUM - CD1\20.Lotus Eaters - The First Picture Of You.wav

     Peak level 95.9 %
     Extraction speed 12.7 X
     Track quality 99.8 %
     Copy CRC AC8239AF
     Track not present in AccurateRip database
     Copy OK

None of the tracks are present in the AccurateRip database

No errors occurred

End of status report

Код:

Exact Audio Copy V1.3 from 2. September 2016

EAC extraction logfile from 15. September 2019, 19:59

Various / The Best - Electronic Album - In The World... Ever! - CD2

Used drive  : ATAPI   iHAS124   Y   Adapter: 1  ID: 0

Read mode               : Secure
Utilize accurate stream : Yes
Defeat audio cache      : No
Make use of C2 pointers : Yes

Read offset correction                      : 48
Overread into Lead-In and Lead-Out          : No
Fill up missing offset samples with silence : Yes
Delete leading and trailing silent blocks   : No
Null samples used in CRC calculations       : Yes
Used interface                              : Native Win32 interface for Win NT & 2000
Gap handling                                : Not detected, thus appended to previous track

Used output format              : User Defined Encoder
Selected bitrate                : 768 kBit/s
Quality                         : High
Add ID3 tag                     : No
Command line compressor         : C:\Program Files (x86)\Exact Audio Copy\FLAC\FLAC.EXE
Additional command line options : -6 -V -T "ARTIST=%artist%" -T "TITLE=%title%" -T "ALBUM=%albumtitle%" -T "DATE=%year%" -T "TRACKNUMBER=%tracknr%" -T "GENRE=%genre%" -T "COMMENT=%comment%" -T "BAND=%albuminterpret%" -T "ALBUMARTIST=%albuminterpret%" -T "COMPOSER=%composer%" %haslyrics%--tag-from-file=LYRICS="%lyricsfile%"%haslyrics% -T "DISCNUMBER=%cdnumber%" -T "TOTALDISCS=%totalcds%" -T "TOTALTRACKS=%numtracks%" %hascover%--picture="%coverfile%"%hascover% %source% -o %dest%

TOC of the extracted CD

     Track |   Start  |  Length  | Start sector | End sector
    ---------------------------------------------------------
        1  |  0:00.00 |  3:48.70 |         0    |    17169
        2  |  3:48.70 |  3:57.71 |     17170    |    35015
        3  |  7:46.66 |  3:17.37 |     35016    |    49827
        4  | 11:04.28 |  3:46.34 |     49828    |    66811
        5  | 14:50.62 |  3:49.23 |     66812    |    84009
        6  | 18:40.10 |  2:53.68 |     84010    |    97052
        7  | 21:34.03 |  3:10.54 |     97053    |   111356
        8  | 24:44.57 |  3:56.28 |    111357    |   129084
        9  | 28:41.10 |  3:46.66 |    129085    |   146100
       10  | 32:28.01 |  4:12.00 |    146101    |   165000
       11  | 36:40.01 |  4:29.57 |    165001    |   185232
       12  | 41:09.58 |  5:50.05 |    185233    |   211487
       13  | 46:59.63 |  3:31.47 |    211488    |   227359
       14  | 50:31.35 |  3:28.01 |    227360    |   242960
       15  | 53:59.36 |  3:01.36 |    242961    |   256571
       16  | 57:00.72 |  3:57.38 |    256572    |   274384
       17  | 60:58.35 |  3:39.20 |    274385    |   290829
       18  | 64:37.55 |  3:41.30 |    290830    |   307434
       19  | 68:19.10 |  3:46.52 |    307435    |   324436
       20  | 72:05.62 |  4:32.61 |    324437    |   344897

Track  1

     Filename A:\PsPBuRnOuT's MUSIC\THE BEST IN THE WORLD... EVER!\ELECTRONIC ALBUM\ELECTRONIC ALBUM - CD2\01.Donna Summer - I Feel Love.wav

     Peak level 95.9 %
     Extraction speed 9.0 X
     Track quality 100.0 %
     Copy CRC E6D7296E
     Track not present in AccurateRip database
     Copy OK

Track  2

     Filename A:\PsPBuRnOuT's MUSIC\THE BEST IN THE WORLD... EVER!\ELECTRONIC ALBUM\ELECTRONIC ALBUM - CD2\02.Lipps Inc. - Funky Town.wav

     Peak level 95.9 %
     Extraction speed 10.3 X
     Track quality 100.0 %
     Copy CRC 759A2171
     Track not present in AccurateRip database
     Copy OK

Track  3

     Filename A:\PsPBuRnOuT's MUSIC\THE BEST IN THE WORLD... EVER!\ELECTRONIC ALBUM\ELECTRONIC ALBUM - CD2\03.Buggles - Video Killed The Radio Star.wav

     Peak level 95.9 %
     Extraction speed 10.9 X
     Track quality 100.0 %
     Copy CRC 14EFC209
     Track not present in AccurateRip database
     Copy OK

Track  4

     Filename A:\PsPBuRnOuT's MUSIC\THE BEST IN THE WORLD... EVER!\ELECTRONIC ALBUM\ELECTRONIC ALBUM - CD2\04.Blondie - Atomic.wav

     Peak level 100.0 %
     Extraction speed 11.8 X
     Track quality 100.0 %
     Copy CRC 701B8CD9
     Track not present in AccurateRip database
     Copy OK

Track  5

     Filename A:\PsPBuRnOuT's MUSIC\THE BEST IN THE WORLD... EVER!\ELECTRONIC ALBUM\ELECTRONIC ALBUM - CD2\05.Philip Oakey & Giorgio Moroder - Together In Electric Dreams.wav

     Peak level 95.9 %
     Extraction speed 12.5 X
     Track quality 100.0 %
     Copy CRC 4C49B437
     Track not present in AccurateRip database
     Copy OK

Track  6

     Filename A:\PsPBuRnOuT's MUSIC\THE BEST IN THE WORLD... EVER!\ELECTRONIC ALBUM\ELECTRONIC ALBUM - CD2\06.Philip Lynott - Yellow Pearl.wav

     Peak level 100.0 %
     Extraction speed 13.1 X
     Track quality 100.0 %
     Copy CRC 60CF160F
     Track not present in AccurateRip database
     Copy OK

Track  7

     Filename A:\PsPBuRnOuT's MUSIC\THE BEST IN THE WORLD... EVER!\ELECTRONIC ALBUM\ELECTRONIC ALBUM - CD2\07.Dead Or Alive - You Spin Me Round (Like A Record).wav

     Peak level 98.3 %
     Extraction speed 14.2 X
     Track quality 100.0 %
     Copy CRC 86B9DE4E
     Track not present in AccurateRip database
     Copy OK

Track  8

     Filename A:\PsPBuRnOuT's MUSIC\THE BEST IN THE WORLD... EVER!\ELECTRONIC ALBUM\ELECTRONIC ALBUM - CD2\08.Marilyn - Calling Your Name.wav

     Peak level 95.9 %
     Extraction speed 13.2 X
     Track quality 99.9 %
     Copy CRC 57E2D2D5
     Track not present in AccurateRip database
     Copy OK

Track  9

     Filename A:\PsPBuRnOuT's MUSIC\THE BEST IN THE WORLD... EVER!\ELECTRONIC ALBUM\ELECTRONIC ALBUM - CD2\09.Altered Images - Don't Talk To Me About Love.wav

     Peak level 95.9 %
     Extraction speed 14.4 X
     Track quality 99.9 %
     Copy CRC EFF40D24
     Track not present in AccurateRip database
     Copy OK

Track 10

     Filename A:\PsPBuRnOuT's MUSIC\THE BEST IN THE WORLD... EVER!\ELECTRONIC ALBUM\ELECTRONIC ALBUM - CD2\10.Liza Minnelli - Losing My Mind.wav

     Peak level 95.9 %
     Extraction speed 14.1 X
     Track quality 99.9 %
     Copy CRC E8261807
     Track not present in AccurateRip database
     Copy OK

Track 11

     Filename A:\PsPBuRnOuT's MUSIC\THE BEST IN THE WORLD... EVER!\ELECTRONIC ALBUM\ELECTRONIC ALBUM - CD2\11.Eighth Wonder - I'm Not Scared.wav

     Peak level 95.9 %
     Extraction speed 15.9 X
     Track quality 100.0 %
     Copy CRC E4C92956
     Track not present in AccurateRip database
     Copy OK

Track 12

     Filename A:\PsPBuRnOuT's MUSIC\THE BEST IN THE WORLD... EVER!\ELECTRONIC ALBUM\ELECTRONIC ALBUM - CD2\12.Abba - The Day Before You Came.wav

     Peak level 95.9 %
     Extraction speed 15.9 X
     Track quality 99.9 %
     Copy CRC ACD92F62
     Track not present in AccurateRip database
     Copy OK

Track 13

     Filename A:\PsPBuRnOuT's MUSIC\THE BEST IN THE WORLD... EVER!\ELECTRONIC ALBUM\ELECTRONIC ALBUM - CD2\13.Jan Hammer - Crockett's Theme.wav

     Peak level 95.9 %
     Extraction speed 18.0 X
     Track quality 100.0 %
     Copy CRC 08B1A1AB
     Track not present in AccurateRip database
     Copy OK

Track 14

     Filename A:\PsPBuRnOuT's MUSIC\THE BEST IN THE WORLD... EVER!\ELECTRONIC ALBUM\ELECTRONIC ALBUM - CD2\14.Tom Tom Club - Genius Of Love.wav

     Peak level 95.9 %
     Extraction speed 17.4 X
     Track quality 100.0 %
     Copy CRC A6CE1020
     Track not present in AccurateRip database
     Copy OK

Track 15

     Filename A:\PsPBuRnOuT's MUSIC\THE BEST IN THE WORLD... EVER!\ELECTRONIC ALBUM\ELECTRONIC ALBUM - CD2\15.Harold Faltermeyer - Axel F.wav

     Peak level 98.8 %
     Extraction speed 18.2 X
     Track quality 100.0 %
     Copy CRC 85A354F3
     Track not present in AccurateRip database
     Copy OK

Track 16

     Filename A:\PsPBuRnOuT's MUSIC\THE BEST IN THE WORLD... EVER!\ELECTRONIC ALBUM\ELECTRONIC ALBUM - CD2\16.Dazz Band - Let It All Blow.wav

     Peak level 95.9 %
     Extraction speed 14.4 X
     Track quality 99.7 %
     Copy CRC D1181FD6
     Track not present in AccurateRip database
     Copy OK

Track 17

     Filename A:\PsPBuRnOuT's MUSIC\THE BEST IN THE WORLD... EVER!\ELECTRONIC ALBUM\ELECTRONIC ALBUM - CD2\17.Herbie Hancock - Rockit.wav

     Peak level 95.9 %
     Extraction speed 17.1 X
     Track quality 99.8 %
     Copy CRC 0C303E1F
     Track not present in AccurateRip database
     Copy OK

Track 18

     Filename A:\PsPBuRnOuT's MUSIC\THE BEST IN THE WORLD... EVER!\ELECTRONIC ALBUM\ELECTRONIC ALBUM - CD2\18.Malcolm McLaren & The World's Famous Supreme Team - Buffalo Gals.wav

     Peak level 95.9 %
     Extraction speed 9.8 X
     Track quality 99.6 %
     Copy CRC 9B072A05
     Track not present in AccurateRip database
     Copy OK

Track 19

     Filename A:\PsPBuRnOuT's MUSIC\THE BEST IN THE WORLD... EVER!\ELECTRONIC ALBUM\ELECTRONIC ALBUM - CD2\19.Rock Steady Crew - (Hey You) The Rock Steady Crew.wav

     Peak level 98.5 %
     Extraction speed 16.8 X
     Track quality 99.9 %
     Copy CRC 46BAD156
     Track not present in AccurateRip database
     Copy OK

Track 20

     Filename A:\PsPBuRnOuT's MUSIC\THE BEST IN THE WORLD... EVER!\ELECTRONIC ALBUM\ELECTRONIC ALBUM - CD2\20.Ollie & Jerry - Breakin'...There's No Stopping Us.wav

     Peak level 95.9 %
     Extraction speed 16.8 X
     Track quality 99.7 %
     Copy CRC 32B698ED
     Track not present in AccurateRip database
     Copy OK

None of the tracks are present in the AccurateRip database

No errors occurred

End of status report

Код:

Exact Audio Copy V1.3 from 2. September 2016

EAC extraction logfile from 15. September 2019, 20:49

Various / The Best - Electronic Album - In The World... Ever! - CD3

Used drive  : ATAPI   iHAS124   Y   Adapter: 1  ID: 0

Read mode               : Secure
Utilize accurate stream : Yes
Defeat audio cache      : No
Make use of C2 pointers : Yes

Read offset correction                      : 48
Overread into Lead-In and Lead-Out          : No
Fill up missing offset samples with silence : Yes
Delete leading and trailing silent blocks   : No
Null samples used in CRC calculations       : Yes
Used interface                              : Native Win32 interface for Win NT & 2000
Gap handling                                : Not detected, thus appended to previous track

Used output format              : User Defined Encoder
Selected bitrate                : 768 kBit/s
Quality                         : High
Add ID3 tag                     : No
Command line compressor         : C:\Program Files (x86)\Exact Audio Copy\FLAC\FLAC.EXE
Additional command line options : -6 -V -T "ARTIST=%artist%" -T "TITLE=%title%" -T "ALBUM=%albumtitle%" -T "DATE=%year%" -T "TRACKNUMBER=%tracknr%" -T "GENRE=%genre%" -T "COMMENT=%comment%" -T "BAND=%albuminterpret%" -T "ALBUMARTIST=%albuminterpret%" -T "COMPOSER=%composer%" %haslyrics%--tag-from-file=LYRICS="%lyricsfile%"%haslyrics% -T "DISCNUMBER=%cdnumber%" -T "TOTALDISCS=%totalcds%" -T "TOTALTRACKS=%numtracks%" %hascover%--picture="%coverfile%"%hascover% %source% -o %dest%

TOC of the extracted CD

     Track |   Start  |  Length  | Start sector | End sector
    ---------------------------------------------------------
        1  |  0:00.00 |  6:01.45 |         0    |    27119
        2  |  6:01.45 |  2:38.34 |     27120    |    39003
        3  |  8:40.04 |  3:32.12 |     39004    |    54915
        4  | 12:12.16 |  3:40.71 |     54916    |    71486
        5  | 15:53.12 |  3:56.58 |     71487    |    89244
        6  | 19:49.70 |  3:32.15 |     89245    |   105159
        7  | 23:22.10 |  4:08.16 |    105160    |   123775
        8  | 27:30.26 |  3:13.39 |    123776    |   138289
        9  | 30:43.65 |  3:13.45 |    138290    |   152809
       10  | 33:57.35 |  3:50.00 |    152810    |   170059
       11  | 37:47.35 |  3:55.00 |    170060    |   187684
       12  | 41:42.35 |  4:54.02 |    187685    |   209736
       13  | 46:36.37 |  3:26.66 |    209737    |   225252
       14  | 50:03.28 |  3:16.68 |    225253    |   240020
       15  | 53:20.21 |  3:25.63 |    240021    |   255458
       16  | 56:46.09 |  5:10.58 |    255459    |   278766
       17  | 61:56.67 |  3:33.73 |    278767    |   294814
       18  | 65:30.65 |  3:03.51 |    294815    |   308590
       19  | 68:34.41 |  3:27.09 |    308591    |   324124
       20  | 72:01.50 |  3:54.50 |    324125    |   341724

Track  1

     Filename A:\PsPBuRnOuT's MUSIC\THE BEST IN THE WORLD... EVER!\ELECTRONIC ALBUM\ELECTRONIC ALBUM - CD3\01.Yoko Ono - Walking On Thin Ice.wav

     Peak level 100.0 %
     Extraction speed 9.0 X
     Track quality 100.0 %
     Copy CRC E8D72573
     Track not present in AccurateRip database
     Copy OK

Track  2

     Filename A:\PsPBuRnOuT's MUSIC\THE BEST IN THE WORLD... EVER!\ELECTRONIC ALBUM\ELECTRONIC ALBUM - CD3\02.Devo - Whip It.wav

     Peak level 95.9 %
     Extraction speed 11.0 X
     Track quality 100.0 %
     Copy CRC 4427DE13
     Track not present in AccurateRip database
     Copy OK

Track  3

     Filename A:\PsPBuRnOuT's MUSIC\THE BEST IN THE WORLD... EVER!\ELECTRONIC ALBUM\ELECTRONIC ALBUM - CD3\03.Martha And The Muffins - Echo Beach.wav

     Peak level 89.2 %
     Extraction speed 11.0 X
     Track quality 100.0 %
     Copy CRC BE46D339
     Track not present in AccurateRip database
     Copy OK

Track  4

     Filename A:\PsPBuRnOuT's MUSIC\THE BEST IN THE WORLD... EVER!\ELECTRONIC ALBUM\ELECTRONIC ALBUM - CD3\04.Furniture - Brilliant Mind.wav

     Peak level 95.9 %
     Extraction speed 12.3 X
     Track quality 100.0 %
     Copy CRC 4C494914
     Track not present in AccurateRip database
     Copy OK

Track  5

     Filename A:\PsPBuRnOuT's MUSIC\THE BEST IN THE WORLD... EVER!\ELECTRONIC ALBUM\ELECTRONIC ALBUM - CD3\05.The Passions - I'm In Love With A German Film Star.wav

     Peak level 95.9 %
     Extraction speed 12.4 X
     Track quality 99.9 %
     Copy CRC 5987A693
     Track not present in AccurateRip database
     Copy OK

Track  6

     Filename A:\PsPBuRnOuT's MUSIC\THE BEST IN THE WORLD... EVER!\ELECTRONIC ALBUM\ELECTRONIC ALBUM - CD3\06.Visage - Mind Of A Toy.wav

     Peak level 95.9 %
     Extraction speed 13.1 X
     Track quality 99.8 %
     Copy CRC 234397F4
     Track not present in AccurateRip database
     Copy OK

Track  7

     Filename A:\PsPBuRnOuT's MUSIC\THE BEST IN THE WORLD... EVER!\ELECTRONIC ALBUM\ELECTRONIC ALBUM - CD3\07.Soft Cell - Torch.wav

     Peak level 100.0 %
     Extraction speed 13.6 X
     Track quality 100.0 %
     Copy CRC A045FAD0
     Track not present in AccurateRip database
     Copy OK

Track  8

     Filename A:\PsPBuRnOuT's MUSIC\THE BEST IN THE WORLD... EVER!\ELECTRONIC ALBUM\ELECTRONIC ALBUM - CD3\08.Swansway - Soul Train.wav

     Peak level 95.9 %
     Extraction speed 13.3 X
     Track quality 99.8 %
     Copy CRC ADB41CCC
     Track not present in AccurateRip database
     Copy OK

Track  9

     Filename A:\PsPBuRnOuT's MUSIC\THE BEST IN THE WORLD... EVER!\ELECTRONIC ALBUM\ELECTRONIC ALBUM - CD3\09.Falco - Rock Me Amadeus.wav

     Peak level 95.9 %
     Extraction speed 14.6 X
     Track quality 100.0 %
     Copy CRC 4A004052
     Track not present in AccurateRip database
     Copy OK

Track 10

     Filename A:\PsPBuRnOuT's MUSIC\THE BEST IN THE WORLD... EVER!\ELECTRONIC ALBUM\ELECTRONIC ALBUM - CD3\10.Sly Fox - Let's Go All The Way.wav

     Peak level 95.9 %
     Extraction speed 15.2 X
     Track quality 99.9 %
     Copy CRC 0B7BCDE0
     Track not present in AccurateRip database
     Copy OK

Track 11

     Filename A:\PsPBuRnOuT's MUSIC\THE BEST IN THE WORLD... EVER!\ELECTRONIC ALBUM\ELECTRONIC ALBUM - CD3\11.Animotion - Obsession.wav

     Peak level 95.9 %
     Extraction speed 16.5 X
     Track quality 100.0 %
     Copy CRC 8C5373A2
     Track not present in AccurateRip database
     Copy OK

Track 12

     Filename A:\PsPBuRnOuT's MUSIC\THE BEST IN THE WORLD... EVER!\ELECTRONIC ALBUM\ELECTRONIC ALBUM - CD3\12.The Human League - Hard Times.wav

     Peak level 95.9 %
     Extraction speed 16.2 X
     Track quality 99.9 %
     Copy CRC 60B8980A
     Track not present in AccurateRip database
     Copy OK

Track 13

     Filename A:\PsPBuRnOuT's MUSIC\THE BEST IN THE WORLD... EVER!\ELECTRONIC ALBUM\ELECTRONIC ALBUM - CD3\13.Heaven 17 - Play To Win.wav

     Peak level 95.9 %
     Extraction speed 9.2 X
     Track quality 99.5 %
     Copy CRC 9D6133A6
     Track not present in AccurateRip database
     Copy OK

Track 14

     Filename A:\PsPBuRnOuT's MUSIC\THE BEST IN THE WORLD... EVER!\ELECTRONIC ALBUM\ELECTRONIC ALBUM - CD3\14.The Fixx - One Thing Leads To Another.wav

     Peak level 95.9 %
     Extraction speed 17.2 X
     Track quality 100.0 %
     Copy CRC A7DE9C24
     Track not present in AccurateRip database
     Copy OK

Track 15

     Filename A:\PsPBuRnOuT's MUSIC\THE BEST IN THE WORLD... EVER!\ELECTRONIC ALBUM\ELECTRONIC ALBUM - CD3\15.Our Daughter's Wedding - Lawn Chairs.wav

     Peak level 95.9 %
     Extraction speed 17.5 X
     Track quality 99.8 %
     Copy CRC 87680717
     Track not present in AccurateRip database
     Copy OK

Track 16

     Filename A:\PsPBuRnOuT's MUSIC\THE BEST IN THE WORLD... EVER!\ELECTRONIC ALBUM\ELECTRONIC ALBUM - CD3\16.David Sylvian - Red Guitar.wav

     Peak level 95.9 %
     Extraction speed 11.8 X
     Track quality 99.6 %
     Copy CRC 536A5F41
     Track not present in AccurateRip database
     Copy OK

Track 17

     Filename A:\PsPBuRnOuT's MUSIC\THE BEST IN THE WORLD... EVER!\ELECTRONIC ALBUM\ELECTRONIC ALBUM - CD3\17.The Psychedelic Furs - Love My Way.wav

     Peak level 98.7 %
     Extraction speed 18.9 X
     Track quality 100.0 %
     Copy CRC 19171BC2
     Track not present in AccurateRip database
     Copy OK

Track 18

     Filename A:\PsPBuRnOuT's MUSIC\THE BEST IN THE WORLD... EVER!\ELECTRONIC ALBUM\ELECTRONIC ALBUM - CD3\18.The Mood - Don't Stop.wav

     Peak level 95.9 %
     Extraction speed 16.7 X
     Track quality 99.8 %
     Copy CRC 1165BBC6
     Track not present in AccurateRip database
     Copy OK

Track 19

     Filename A:\PsPBuRnOuT's MUSIC\THE BEST IN THE WORLD... EVER!\ELECTRONIC ALBUM\ELECTRONIC ALBUM - CD3\19.New Musik - Living By Numbers.wav

     Peak level 100.0 %
     Extraction speed 10.6 X
     Track quality 99.6 %
     Copy CRC 7082C2DB
     Track not present in AccurateRip database
     Copy OK

Track 20

     Filename A:\PsPBuRnOuT's MUSIC\THE BEST IN THE WORLD... EVER!\ELECTRONIC ALBUM\ELECTRONIC ALBUM - CD3\20.H2O - Dream To Sleep.wav

     Peak level 95.9 %
     Extraction speed 11.5 X
     Track quality 99.5 %
     Copy CRC CF33BB64
     Track not present in AccurateRip database
     Copy OK

None of the tracks are present in the AccurateRip database

No errors occurred

End of status report

Код:

REM GENRE Electronic
REM DATE 2019
REM DISCID 39117514
REM DISCNUMBER 1
REM TOTALDISCS 3
REM COMMENT "Exact Audio Copy V1.3"
PERFORMER "Various"
TITLE "The Best - Electronic Album - In The World... Ever! - CD1"
FILE "01.The Human League - The Sound Of The Crowd.flac" WAVE
  TRACK 01 AUDIO
    PERFORMER "The Human League"
    TITLE "The Sound Of The Crowd"
    INDEX 01 00:00:00
FILE "02.Soft Cell - Tainted Love.flac" WAVE
  TRACK 02 AUDIO
    PERFORMER "Soft Cell"
    TITLE "Tainted Love"
    INDEX 01 00:00:00
FILE "03.Visage - Fade To Grey.flac" WAVE
  TRACK 03 AUDIO
    PERFORMER "Visage"
    TITLE "Fade To Grey"
    INDEX 01 00:00:00
FILE "04.Heaven 17 - Temptation.flac" WAVE
  TRACK 04 AUDIO
    PERFORMER "Heaven 17"
    TITLE "Temptation"
    INDEX 01 00:00:00
FILE "05.Tears For Fears - Mad World.flac" WAVE
  TRACK 05 AUDIO
    PERFORMER "Tears For Fears"
    TITLE "Mad World"
    INDEX 01 00:00:00
FILE "06.Japan - Quiet Life.flac" WAVE
  TRACK 06 AUDIO
    PERFORMER "Japan"
    TITLE "Quiet Life"
    INDEX 01 00:00:00
FILE "07.Orchestral Manoeuvres In The Dark - Messages.flac" WAVE
  TRACK 07 AUDIO
    PERFORMER "Orchestral Manoeuvres In The Dark"
    TITLE "Messages"
    INDEX 01 00:00:00
FILE "08.China Crisis - Christian.flac" WAVE
  TRACK 08 AUDIO
    PERFORMER "China Crisis"
    TITLE "Christian"
    INDEX 01 00:00:00
FILE "09.The Cure - The Walk.flac" WAVE
  TRACK 09 AUDIO
    PERFORMER "The Cure"
    TITLE "The Walk"
    INDEX 01 00:00:00
FILE "10.Simple Minds - Promised You A Miracle.flac" WAVE
  TRACK 10 AUDIO
    PERFORMER "Simple Minds"
    TITLE "Promised You A Miracle"
    INDEX 01 00:00:00
FILE "11.A Flock Of Seagulls - I Ran.flac" WAVE
  TRACK 11 AUDIO
    PERFORMER "A Flock Of Seagulls"
    TITLE "I Ran"
    INDEX 01 00:00:00
FILE "12.Yello - The Race.flac" WAVE
  TRACK 12 AUDIO
    PERFORMER "Yello"
    TITLE "The Race"
    INDEX 01 00:00:00
FILE "13.Joe Jackson - Steppin' Out.flac" WAVE
  TRACK 13 AUDIO
    PERFORMER "Joe Jackson"
    TITLE "Steppin' Out"
    INDEX 01 00:00:00
FILE "14.Split Enz - I Got You.flac" WAVE
  TRACK 14 AUDIO
    PERFORMER "Split Enz"
    TITLE "I Got You"
    INDEX 01 00:00:00
FILE "15.Thompson Twins - Love On Your Side.flac" WAVE
  TRACK 15 AUDIO
    PERFORMER "Thompson Twins"
    TITLE "Love On Your Side"
    INDEX 01 00:00:00
FILE "16.Landscape - Einstein A Go-Go.flac" WAVE
  TRACK 16 AUDIO
    PERFORMER "Landscape"
    TITLE "Einstein A Go-Go"
    INDEX 01 00:00:00
FILE "17.Trio - Da Da Da (I Don't Love You You Don't Love Me Aha Aha Aha).flac" WAVE
  TRACK 17 AUDIO
    PERFORMER "Trio"
    TITLE "Da Da Da (I Don't Love You You Don't Love Me Aha Aha Aha)"
    INDEX 01 00:00:00
FILE "18.Nik Kershaw - Wouldn't It Be Good.flac" WAVE
  TRACK 18 AUDIO
    PERFORMER "Nik Kershaw"
    TITLE "Wouldn't It Be Good"
    INDEX 01 00:00:00
FILE "19.Fiction Factory - (Feels Like) Heaven.flac" WAVE
  TRACK 19 AUDIO
    PERFORMER "Fiction Factory"
    TITLE "(Feels Like) Heaven"
    INDEX 01 00:00:00
FILE "20.Lotus Eaters - The First Picture Of You.flac" WAVE
  TRACK 20 AUDIO
    PERFORMER "Lotus Eaters"
    TITLE "The First Picture Of You"
    INDEX 01 00:00:00

Код:

REM GENRE Electronic
REM DATE 2019
REM DISCID 0511F614
REM DISCNUMBER 2
REM TOTALDISCS 3
REM COMMENT "Exact Audio Copy V1.3"
PERFORMER "Various"
TITLE "The Best - Electronic Album - In The World... Ever! - CD2"
FILE "01.Donna Summer - I Feel Love.flac" WAVE
  TRACK 01 AUDIO
    PERFORMER "Donna Summer"
    TITLE "I Feel Love"
    INDEX 01 00:00:00
FILE "02.Lipps Inc. - Funky Town.flac" WAVE
  TRACK 02 AUDIO
    PERFORMER "Lipps Inc."
    TITLE "Funky Town"
    INDEX 01 00:00:00
FILE "03.Buggles - Video Killed The Radio Star.flac" WAVE
  TRACK 03 AUDIO
    PERFORMER "Buggles"
    TITLE "Video Killed The Radio Star"
    INDEX 01 00:00:00
FILE "04.Blondie - Atomic.flac" WAVE
  TRACK 04 AUDIO
    PERFORMER "Blondie"
    TITLE "Atomic"
    INDEX 01 00:00:00
FILE "05.Philip Oakey & Giorgio Moroder - Together In Electric Dreams.flac" WAVE
  TRACK 05 AUDIO
    PERFORMER "Philip Oakey & Giorgio Moroder"
    TITLE "Together In Electric Dreams"
    INDEX 01 00:00:00
FILE "06.Philip Lynott - Yellow Pearl.flac" WAVE
  TRACK 06 AUDIO
    PERFORMER "Philip Lynott"
    TITLE "Yellow Pearl"
    INDEX 01 00:00:00
FILE "07.Dead Or Alive - You Spin Me Round (Like A Record).flac" WAVE
  TRACK 07 AUDIO
    PERFORMER "Dead Or Alive"
    TITLE "You Spin Me Round (Like A Record)"
    INDEX 01 00:00:00
FILE "08.Marilyn - Calling Your Name.flac" WAVE
  TRACK 08 AUDIO
    PERFORMER "Marilyn"
    TITLE "Calling Your Name"
    INDEX 01 00:00:00
FILE "09.Altered Images - Don't Talk To Me About Love.flac" WAVE
  TRACK 09 AUDIO
    PERFORMER "Altered Images"
    TITLE "Don't Talk To Me About Love"
    INDEX 01 00:00:00
FILE "10.Liza Minnelli - Losing My Mind.flac" WAVE
  TRACK 10 AUDIO
    PERFORMER "Liza Minnelli"
    TITLE "Losing My Mind"
    INDEX 01 00:00:00
FILE "11.Eighth Wonder - I'm Not Scared.flac" WAVE
  TRACK 11 AUDIO
    PERFORMER "Eighth Wonder"
    TITLE "I'm Not Scared"
    INDEX 01 00:00:00
FILE "12.Abba - The Day Before You Came.flac" WAVE
  TRACK 12 AUDIO
    PERFORMER "Abba"
    TITLE "The Day Before You Came"
    INDEX 01 00:00:00
FILE "13.Jan Hammer - Crockett's Theme.flac" WAVE
  TRACK 13 AUDIO
    PERFORMER "Jan Hammer"
    TITLE "Crockett's Theme"
    INDEX 01 00:00:00
FILE "14.Tom Tom Club - Genius Of Love.flac" WAVE
  TRACK 14 AUDIO
    PERFORMER "Tom Tom Club"
    TITLE "Genius Of Love"
    INDEX 01 00:00:00
FILE "15.Harold Faltermeyer - Axel F.flac" WAVE
  TRACK 15 AUDIO
    PERFORMER "Harold Faltermeyer"
    TITLE "Axel F"
    INDEX 01 00:00:00
FILE "16.Dazz Band - Let It All Blow.flac" WAVE
  TRACK 16 AUDIO
    PERFORMER "Dazz Band"
    TITLE "Let It All Blow"
    INDEX 01 00:00:00
FILE "17.Herbie Hancock - Rockit.flac" WAVE
  TRACK 17 AUDIO
    PERFORMER "Herbie Hancock"
    TITLE "Rockit"
    INDEX 01 00:00:00
FILE "18.Malcolm McLaren & The World's Famous Supreme Team - Buffalo Gals.flac" WAVE
  TRACK 18 AUDIO
    PERFORMER "Malcolm McLaren & The World's Famous Supreme Team"
    TITLE "Buffalo Gals"
    INDEX 01 00:00:00
FILE "19.Rock Steady Crew - (Hey You) The Rock Steady Crew.flac" WAVE
  TRACK 19 AUDIO
    PERFORMER "Rock Steady Crew"
    TITLE "(Hey You) The Rock Steady Crew"
    INDEX 01 00:00:00
FILE "20.Ollie & Jerry - Breakin'...There's No Stopping Us.flac" WAVE
  TRACK 20 AUDIO
    PERFORMER "Ollie & Jerry"
    TITLE "Breakin'...There's No Stopping Us"
    INDEX 01 00:00:00

Код:

REM GENRE Electronic
REM DATE 2019
REM DISCID 0E11CC14
REM DISCNUMBER 3
REM TOTALDISCS 3
REM COMMENT "Exact Audio Copy V1.3"
PERFORMER "Various"
TITLE "The Best - Electronic Album - In The World... Ever! - CD3"
FILE "01.Yoko Ono - Walking On Thin Ice.flac" WAVE
  TRACK 01 AUDIO
    PERFORMER "Yoko Ono"
    TITLE "Walking On Thin Ice"
    INDEX 01 00:00:00
FILE "02.Devo - Whip It.flac" WAVE
  TRACK 02 AUDIO
    PERFORMER "Devo"
    TITLE "Whip It"
    INDEX 01 00:00:00
FILE "03.Martha And The Muffins - Echo Beach.flac" WAVE
  TRACK 03 AUDIO
    PERFORMER "Martha And The Muffins"
    TITLE "Echo Beach"
    INDEX 01 00:00:00
FILE "04.Furniture - Brilliant Mind.flac" WAVE
  TRACK 04 AUDIO
    PERFORMER "Furniture"
    TITLE "Brilliant Mind"
    INDEX 01 00:00:00
FILE "05.The Passions - I'm In Love With A German Film Star.flac" WAVE
  TRACK 05 AUDIO
    PERFORMER "The Passions"
    TITLE "I'm In Love With A German Film Star"
    INDEX 01 00:00:00
FILE "06.Visage - Mind Of A Toy.flac" WAVE
  TRACK 06 AUDIO
    PERFORMER "Visage"
    TITLE "Mind Of A Toy"
    INDEX 01 00:00:00
FILE "07.Soft Cell - Torch.flac" WAVE
  TRACK 07 AUDIO
    PERFORMER "Soft Cell"
    TITLE "Torch"
    INDEX 01 00:00:00
FILE "08.Swansway - Soul Train.flac" WAVE
  TRACK 08 AUDIO
    PERFORMER "Swansway"
    TITLE "Soul Train"
    INDEX 01 00:00:00
FILE "09.Falco - Rock Me Amadeus.flac" WAVE
  TRACK 09 AUDIO
    PERFORMER "Falco"
    TITLE "Rock Me Amadeus"
    INDEX 01 00:00:00
FILE "10.Sly Fox - Let's Go All The Way.flac" WAVE
  TRACK 10 AUDIO
    PERFORMER "Sly Fox"
    TITLE "Let's Go All The Way"
    INDEX 01 00:00:00
FILE "11.Animotion - Obsession.flac" WAVE
  TRACK 11 AUDIO
    PERFORMER "Animotion"
    TITLE "Obsession"
    INDEX 01 00:00:00
FILE "12.The Human League - Hard Times.flac" WAVE
  TRACK 12 AUDIO
    PERFORMER "The Human League"
    TITLE "Hard Times"
    INDEX 01 00:00:00
FILE "13.Heaven 17 - Play To Win.flac" WAVE
  TRACK 13 AUDIO
    PERFORMER "Heaven 17"
    TITLE "Play To Win"
    INDEX 01 00:00:00
FILE "14.The Fixx - One Thing Leads To Another.flac" WAVE
  TRACK 14 AUDIO
    PERFORMER "The Fixx"
    TITLE "One Thing Leads To Another"
    INDEX 01 00:00:00
FILE "15.Our Daughter's Wedding - Lawn Chairs.flac" WAVE
  TRACK 15 AUDIO
    PERFORMER "Our Daughter's Wedding"
    TITLE "Lawn Chairs"
    INDEX 01 00:00:00
FILE "16.David Sylvian - Red Guitar.flac" WAVE
  TRACK 16 AUDIO
    PERFORMER "David Sylvian"
    TITLE "Red Guitar"
    INDEX 01 00:00:00
FILE "17.The Psychedelic Furs - Love My Way.flac" WAVE
  TRACK 17 AUDIO
    PERFORMER "The Psychedelic Furs"
    TITLE "Love My Way"
    INDEX 01 00:00:00
FILE "18.The Mood - Don't Stop.flac" WAVE
  TRACK 18 AUDIO
    PERFORMER "The Mood"
    TITLE "Don't Stop"
    INDEX 01 00:00:00
FILE "19.New Musik - Living By Numbers.flac" WAVE
  TRACK 19 AUDIO
    PERFORMER "New Musik"
    TITLE "Living By Numbers"
    INDEX 01 00:00:00
FILE "20.H2O - Dream To Sleep.flac" WAVE
  TRACK 20 AUDIO
    PERFORMER "H2O"
    TITLE "Dream To Sleep"
    INDEX 01 00:00:00



piratbit.org



Скачать VA - The Best Electronic Album - In The World... Ever! через торрент http://i87.fastpic.ru/big/2019/0919/16/d024f552e69a5b646322fbf6703fec16.png Скачать фильм VA - The Best Electronic Album - In The World... Ever! через торрент бесплантно в хорошем качестве ... 10 10 1
Торрент: Зарегистрирован [2019-09-19 10:47] · скачан: 38 раз
Статус: √ проверено
Размер: 1.56 GB
Как cкачать? Как скачать VA - The Best Electronic Album - In The World... Ever! через торрент | qTorrent


>> Регистрируемся здесь <<






Отзывы и комментарии о схеме читаем и пишем здесь: ---> Отзывы и комментарии о схеме

Новые благодарочки в телеграм довольных пользователей:
скриншот   скриншот   скриншот   скриншот   скриншот

19-09-2019 10:53 VA - The Best Electronic Album - In The World... Ever! Скачать торрент  

Топик был перенесен из форума Музыка других жанров в форум Eurodance, Technopop, Disco (lossless)


bober100piratbit.org



    Дорогой пользователь! Огромная просьба, поблагодарите релизера, оцените раздачу и оставьте свои комментарий, если Вы скачали VA - The Best Electronic Album - In The World... Ever! через торрент бесплатно! Внесите свою лепту в развитие PiratBit!
    Комментировать посты могут только пользователи прошедшие не сложную регистрацию
    Показать сообщения:    

    VA - The Best Electronic Album - In The World... Ever! через торрент
    Скачать бесплатно VA - The Best Electronic Album - In The World... Ever!
    VA - The Best Electronic Album - In The World... Ever! скачать торрент
    VA - The Best Electronic Album - In The World... Ever! смотреть онлайн
    Cкачать фильм VA - The Best Electronic Album - In The World... Ever! бесплатно
    VA - The Best Electronic Album - In The World... Ever! скачать торрент в хорошем качестве
    VA - The Best Electronic Album - In The World... Ever! смотреть онлайн бесплатно в хорошем качестве


    Вы не можете начинать темы
    Вы не можете отвечать на сообщения
    Вы не можете редактировать свои сообщения
    Вы не можете удалять свои сообщения
    Вы не можете голосовать в опросах
    Вы не можете прикреплять файлы к сообщениям
    Вы можете скачивать файлы