Доктор Стрэндж

Лицензия

Добыча

Дубляж

Дом дракона

1 сезон

Тор

Дубляж

В эфире

Дубляж

Там, где раки поют

MVO

Властелин колец

1 сезон

Ultimate

pack

Рекомендуем

30

Пиратка

ВАЖНО

ВАЖНО

Ghostwire

Пиратка

jed

RePack

nioh2

RePack

RDR2

RePack

NEED FOR SPEED™ PAYBACK

RePack

скачать торрент

Кинопоиск HD

Острые козырьки 6 сезон

6 сезон

FAR CRY 6

RePack

скачать торрент

Лицензия

скачать торрент

MVO

1

1 сезон

скачать торрент

1 сезон

скачать торрент

Лицензия

  

Проклятие Аннабель 3 / Annabelle Comes Home (Гари Доберман) [2019, Ужасы, триллер, детектив, WEB-DLRip-AVC] Дубляж [iTunes], MVO - ExKinoRay

Проклятие Аннабель 3 через торрент piratbit.org

Раздают: 1 [ 0 KB/s ]
Размер: 2.06 GB | Добавлен: 3 года 2 мес. назад | Торрент скачан:913 раз
Смотреть онлайн | Скачать   

20-09-2019 03:16 Проклятие Аннабель 3 Скачать торрент  

Название: Проклятие Аннабель 3
Оригинальное название: Annabelle Comes Home
Год выпуска: 2019
Жанр: Ужасы, триллер, детектив
Режиссер: Гари Доберман
В ролях: Маккенна Грейс, Мэдисон Айсмен, Кэти Сариф, Вера Фармига, Патрик Уилсон, Майкл Чимино, Самара Ли, Кензи Каплан, Шаде Катарина, Майкл Патрик МакГилл

Описание:
Преисполнившись решимости удержать Аннабель от дальнейших разрушений и хаоса, демонологи Эд и Лоррейн Уоррены приносят одержимую куклу в запертую комнату артефактов в своем доме, поместив ее под «надежное» освященное стекло и заручившись благословением священника. Однако беспросветная ночь ужаса ждет обитателей дома, когда Аннабель пробуждает злых духов комнаты и их новой мишенью становится десятилетняя дочь Уорренов Джуди и ее друзья.

rating

Страна: США
Студия: Atomic Monster, New Line Cinema, RatPac-Dune Entertainment
Продолжительность: 01:46:04
Перевод: Дублированный | iTunes

Формат: MKV
Качество: WEB-DLRip-AVC
Видео: MPEG-4 AVC, 1024x428 (2.40:1), 23.976 fps, 1664 Kbps, 0.158 bit/pixel
Аудио #01: 48 kHz, AC3, 5.1, 384 Kbps | iTunes | RUS |
Аудио #02: 48 kHz, AC3, 2.0, 192 Kbps | HDRezka | RUS |
Аудио #03: 48 kHz, AAC, 2.0, 154 Kbps | iTunes | UKR |
Аудио #04: 48 kHz, AC3, 5.1, 384 Kbps | Оригинал | ENG |
Субтитры: Русские (Forced, full), украинские (Forced), английские
General
Unique ID : 236630954847225815012406755415473744033 (0xB20576D3E7D0153AA2238DED62D768A1)
Complete name : F:\Annabelle.Comes.Home.2019.2xRus.WEB-DL.ExKinoRay.mkv
Format : Matroska
Format version : Version 2
File size : 2.06 GiB
Duration : 1 h 46 min
Overall bit rate : 2 780 kb/s
Movie name : Annabelle Comes Home 2019 from ExKinoRay
Encoded date : UTC 2019-09-20 02:09:33
Writing application : mkvmerge v5.6.0 ('Kenya Kane') built on May 27 2012 16:44:04
Writing library : libebml v1.2.3 + libmatroska v1.3.0

Video
ID : 1
Format : AVC
Format/Info : Advanced Video Codec
Format profile : High@L4.1
Format settings, CABAC : Yes
Format settings, ReFrames : 11 frames
Codec ID : V_MPEG4/ISO/AVC
Duration : 1 h 46 min
Nominal bit rate : 1 664 kb/s
Width : 1 024 pixels
Height : 428 pixels
Display aspect ratio : 2.40:1
Frame rate mode : Constant
Frame rate : 23.976 (23976/1000) FPS
Color space : YUV
Chroma subsampling : 4:2:0
Bit depth : 8 bits
Scan type : Progressive
Bits/(Pixel*Frame) : 0.158
Title : Enigma
Writing library : x264 core 152 r2851 ba24899
Encoding settings : cabac=1 / ref=11 / deblock=1:-2:-2 / analyse=0x3:0x113 / me=umh / subme=10 / psy=1 / psy_rd=1.00:0.05 / mixed_ref=1 / me_range=32 / chroma_me=1 / trellis=2 / 8x8dct=1 / cqm=0 / deadzone=21,11 / fast_pskip=0 / chroma_qp_offset=-3 / threads=12 / lookahead_threads=2 / sliced_threads=0 / nr=0 / decimate=0 / interlaced=0 / bluray_compat=0 / constrained_intra=0 / bframes=9 / b_pyramid=2 / b_adapt=2 / b_bias=0 / direct=3 / weightb=1 / open_gop=0 / weightp=2 / keyint=240 / keyint_min=23 / scenecut=40 / intra_refresh=0 / rc=2pass / mbtree=0 / bitrate=1664 / ratetol=1.0 / qcomp=0.60 / qpmin=0 / qpmax=51 / qpstep=4 / cplxblur=20.0 / qblur=0.5 / ip_ratio=1.40 / pb_ratio=1.30 / aq=2:0.80
Language : English
Default : Yes
Forced : No
Color range : Limited
Color primaries : BT.709
Transfer characteristics : BT.709
Matrix coefficients : BT.709

Audio #1
ID : 2
Format : AC-3
Format/Info : Audio Coding 3
Mode extension : CM (complete main)
Format settings, Endianness : Big
Codec ID : A_AC3
Duration : 1 h 46 min
Bit rate mode : Constant
Bit rate : 384 kb/s
Channel(s) : 6 channels
Channel positions : Front: L C R, Side: L R, LFE
Sampling rate : 48.0 kHz
Frame rate : 31.250 FPS (1536 spf)
Compression mode : Lossy
Stream size : 291 MiB (14%)
Title : iTunes
Language : Russian
Default : Yes
Forced : Yes

Audio #2
ID : 3
Format : AC-3
Format/Info : Audio Coding 3
Mode extension : CM (complete main)
Format settings, Endianness : Big
Codec ID : A_AC3
Duration : 1 h 46 min
Bit rate mode : Constant
Bit rate : 192 kb/s
Channel(s) : 2 channels
Channel positions : Front: L R
Sampling rate : 48.0 kHz
Frame rate : 31.250 FPS (1536 spf)
Compression mode : Lossy
Stream size : 146 MiB (7%)
Title : MVO [HDRezka]
Language : Russian
Default : No
Forced : No

Audio #3
ID : 4
Format : AAC
Format/Info : Advanced Audio Codec
Format profile : LC
Codec ID : A_AAC
Duration : 1 h 46 min
Channel(s) : 2 channels
Channel positions : Front: L R
Sampling rate : 48.0 kHz
Frame rate : 46.875 FPS (1024 spf)
Compression mode : Lossy
Title : iTunes
Language : Ukrainian
Default : No
Forced : No

Audio #4
ID : 5
Format : AC-3
Format/Info : Audio Coding 3
Mode extension : CM (complete main)
Format settings, Endianness : Big
Codec ID : A_AC3
Duration : 1 h 46 min
Bit rate mode : Constant
Bit rate : 384 kb/s
Channel(s) : 6 channels
Channel positions : Front: L C R, Side: L R, LFE
Sampling rate : 48.0 kHz
Frame rate : 31.250 FPS (1536 spf)
Compression mode : Lossy
Stream size : 291 MiB (14%)
Title : Original
Language : English
Default : No
Forced : No

Text #1
ID : 6
Format : UTF-8
Codec ID : S_TEXT/UTF8
Codec ID/Info : UTF-8 Plain Text
Title : Forced
Language : Russian
Default : Yes
Forced : Yes

Text #2
ID : 7
Format : UTF-8
Codec ID : S_TEXT/UTF8
Codec ID/Info : UTF-8 Plain Text
Title : Full
Language : Russian
Default : No
Forced : No

Text #3
ID : 8
Format : UTF-8
Codec ID : S_TEXT/UTF8
Codec ID/Info : UTF-8 Plain Text
Title : Forced
Language : Ukrainian
Default : No
Forced : No

Text #4
ID : 9
Format : UTF-8
Codec ID : S_TEXT/UTF8
Codec ID/Info : UTF-8 Plain Text
Title : SDH
Language : English
Default : No
Forced : No

Menu
00:00:00.000 : en:1
00:07:58.000 : en:2
00:15:34.000 : en:3
00:24:02.000 : en:4
00:32:57.000 : en:5
00:43:00.000 : en:6
00:52:29.000 : en:7
01:02:07.000 : en:8
01:06:14.000 : en:9
01:15:05.000 : en:10
01:21:45.000 : en:11
01:30:22.000 : en:12
01:39:58.000 : en:13


Релиз от: VK релиз-группы

Автор релиза: Enigma



Скачать Проклятие Аннабель 3 через торрент https://st-kp-yandex-net.translate.goog/images/film_iphone/iphone360_1125423.jpg Скачать, смотреть онлайн Проклятие Аннабель 3 бесплантно в хорошем качестве Описание: Преисполнившись решимости удержать Аннабель от дальнейших разрушений и хаоса, демонологи Эд и Лоррейн Уоррены приносят одержимую ... 9.4 10 16
Info! Золотая раздача, скачанное не засчитывается.
Торрент: Зарегистрирован [2019-09-20 03:16] · скачан: 913 раз
Статус: √ проверено
Размер: 2.06 GB
Как cкачать? Как скачать Проклятие Аннабель 3 через торрент | UTorrent

% Раздел Тема Автор DL S | L
Фильмы [HD 720p, 1080p] (Хороший звук DUB, MVO) [ 4.93 GB ] Проклятие Аннабель 3 / Annabelle Comes Home | Лицензия | 720p Enigma2010 Скачать
6 | 0
Фильмы 2019-2020 [DVDrip, WEB-DLRip, HDrip] (DUB, MVO) [ 2.2 GB ] Проклятие Аннабель 3 / Annabelle Comes Home | Лицензия | BDRip-AVC Enigma2010 Скачать
1 | 0

28-11-2019 20:33  


Отключить вcю реклaмy на сайте, в т.ч. и в плеере онлайн просмотра!

20-09-2019 16:24 Проклятие Аннабель 3 Скачать торрент  

мое мнение полный провал



21-09-2019 11:36 Проклятие Аннабель 3 Скачать торрент  

Vai2013 писал(а):

мое мнение полный провал

Фильм для впечатлительных?



21-09-2019 14:42 Проклятие Аннабель 3 Скачать торрент  

Sep-ultura писал(а):

Vai2013 писал(а):

мое мнение полный провал

Фильм для впечатлительных?

тупая телка все портит)) фильм на разок! Жалко тупую телку нельзя е...ануть в начале фильма)))



21-09-2019 20:00 Проклятие Аннабель 3 Скачать торрент  

так себе фильм , но 1 раз посмотреть можно.



    Дорогой пользователь! Огромная просьба, поблагодарите релизера, оцените раздачу и оставьте свои комментарий, если Вы скачали Проклятие Аннабель 3 через торрент бесплатно!!
    Комментировать посты могут только пользователи прошедшие не сложную регистрацию
    Показать сообщения:    


    Проклятие Аннабель 3 через торрент
    Скачать бесплатно Проклятие Аннабель 3
    Проклятие Аннабель 3 скачать торрент
    Проклятие Аннабель 3 смотреть онлайн
    Cкачать фильм Проклятие Аннабель 3 бесплатно
    Проклятие Аннабель 3 скачать торрент в хорошем качестве
    Проклятие Аннабель 3 смотреть онлайн бесплатно в хорошем качестве
    Вы не можете начинать темы
    Вы не можете отвечать на сообщения
    Вы не можете редактировать свои сообщения
    Вы не можете удалять свои сообщения
    Вы не можете голосовать в опросах
    Вы не можете прикреплять файлы к сообщениям
    Вы можете скачивать файлы
    Проклятие Аннабель 3 / Annabelle Comes Home [2019, Ужасы, триллер, детектив, WEB-DLRip-AVC] Дубляж [iTunes], MVO - ExKinoRay смотреть онлайн, скачать торрент picoco.icu