MEGA NEWS Получи личный уникальный адрес сайта и защити себя от блокировок. Внимание количество ограничено!!!

iTunes

1+1

iTunes

мы

iTunes

1

iTunes

Чернобыль

iTunes

Ральф против интернета

Лицензия

ПШазам

Лицензия

Игра престолов

Лицензия

30
pack

ВАЖНО

!!Акция!!

Alien_RageХит недели

RePack

Resident Evil 21

ИГРА 18+

pack

RePack

Metro:Exodus

!!Акция!!

Alien_Rage

RePack

fifa19

RePack

Assassins Creed: Odyssey

RePack

NEED FOR SPEED™ PAYBACK

3 сезон

9 сезон

Бесстыжие 9 сезон

Все сериалы

все сериалы на PB.wtf

RePack

FAR CRY 5
Ребята, катастрофически не хватает 1900р. для оплаты серверов за АВГУСТ (всвязи с блокировками трафик упал в 3 раза), 1-2р., выручайте.
  

Соседка / The Girl Next Door (Люк Гринфилд) [2004, мелодрама, BDRip - HEVC 1080p 10 bit 60 FPS] (Unrated) DUB piratbit.org

Соседка через торрент piratbit.org

Раздают: 4 [ 0 KB/s ]
Размер: 3.65 GB | Добавлен: 26 д. назад | Торрент скачан:71 раз
Скачать  

21-09-2019 09:43 Соседка Скачать торрент  

Соседка / The Girl Next Door
««Её невинность - его заблуждение»»


Год выпуска: 2004
Страна: США
Жанр: мелодрама,
Продолжительность: 01:49:28
Перевод: Дубляж - [Лицензия]
Субтитры: русские (Full).
Режиссер: Люк Гринфилд
В ролях:

Эмиль Хирш (Matthew Kidman), Элиша Катберт (Danielle), Тимоти Олифант (Kelly), Джеймс Римар (Hugo Posh), Крис Маркетт (Eli), Пол Дано (Klitz), Тимоти Боттомс (Mr. Kidman), Донна Баллок (Mrs. Kidman), Джейкоб Янг (Hunter), Брайан Колодзей (Derek), Брэндон Айронс (Troy), Аманда Свистен (April)
Описание:
Старшеклассник Меттью, мечтая о карьере политика, между тем обнаруживает, что у него появилась новая соседка, неотразимая 19-летняя блондинка Дениэль. Цветочно-конфетная стадия пролетает мимолетно, и вот уже ослепленной любовью Меттью уверен, что он нашел женщину всей своей жизни.
Мировая премьера: 18 февраля 2004

Качество: BDRip 1080p Rip by DD2D3
Исходник: BDRemux by ivandubskoj
Формат: MKV
Видео: V_MPEGH/ISO/HEVC, 1920x1040 (1.85:1), 4003 kbps, 59,940 fps, 0,033 bpp
Аудио: русский / DTS / 5.1 / 48 kHz / 768 kbps / 24 bit ||
Навигация по главам: есть



Общее
Уникальный идентификатор : 230287188131172393594174702358720189783 (0xAD3FB2FB0A118148B3A85BEBAE989557)
Полное имя : D:\Соседка - The Girl Next Door (2004) BDRip - HEVC 1080p 10 bit 60 FPS.mkv
Формат : Matroska
Версия формата : Version 4
Размер файла : 3,65 Гбайт
Продолжительность : 1 ч. 49 м.
Общий поток : 4776 Кбит/сек
Название фильма : Rip by DD2D3
Дата кодирования : UTC 2019-09-20 16:44:33
Программа кодирования : mkvmerge v10.0.0 ('To Drown In You') 32bit
Библиотека кодирования : libebml v1.3.4 + libmatroska v1.4.5
Attachments : poster

Видео
Идентификатор : 1
Формат : HEVC
Формат/Информация : High Efficiency Video Coding
Профиль формата : Main 10@L4.1@Main
Идентификатор кодека : V_MPEGH/ISO/HEVC
Продолжительность : 1 ч. 49 м.
Битрейт : 4004 Кбит/сек
Ширина : 1920 пикселей
Высота : 1040 пикселей
Соотношение сторон : 1,85:1
Режим частоты кадров : Постоянный
Частота кадров : 59,940 (60000/1001) кадров/сек
Цветовое пространство : YUV
Субдискретизация насыщенности : 4:2:0
Битовая глубина : 10 бит
Бит/(Пиксели*Кадры) : 0.033
Размер потока : 3,06 Гбайт (84%)
Библиотека кодирования : x265 2.3+33-0b7d54dbb71a87a0:[Windows][MSVC 1800][64 bit] 10bit: KG7x [x265.ru]
Настройки программы : cpuid=1173503 / frame-threads=2 / numa-pools=4 / wpp / no-pmode / no-pme / no-psnr / no-ssim / log-level=2 / input-csp=1 / input-res=1920x1040 / interlace=0 / total-frames=393718 / level-idc=41 / high-tier=1 / uhd-bd=0 / ref=3 / no-allow-non-conformance / no-repeat-headers / annexb / no-aud / no-hrd / info / hash=0 / no-temporal-layers / open-gop / min-keyint=25 / keyint=250 / bframes=4 / b-adapt=2 / b-pyramid / bframe-bias=0 / rc-lookahead=20 / lookahead-slices=6 / scenecut=40 / no-intra-refresh / ctu=64 / min-cu-size=8 / no-rect / no-amp / max-tu-size=32 / tu-inter-depth=1 / tu-intra-depth=1 / limit-tu=0 / rdoq-level=0 / dynamic-rd=0.00 / no-ssim-rd / signhide / no-tskip / nr-intra=0 / nr-inter=0 / no-constrained-intra / strong-intra-smoothing / max-merge=2 / limit-refs=3 / no-limit-modes / me=1 / subme=2 / merange=57 / temporal-mvp / weightp / no-weightb / no-analyze-src-pics / deblock=0:0 / no-sao / no-sao-non-deblock / rd=3 / no-early-skip / no-rskip / no-fast-intra / no-tskip-fast / no-cu-lossless / no-b-intra / rdpenalty=0 / psy-rd=4.00 / psy-rdoq=0.00 / no-rd-refine / analysis-mode=0 / no-lossless / cbqpoffs=0 / crqpoffs=0 / rc=abr / bitrate=4000 / qcomp=0.60 / qpstep=1 / stats-write=0 / stats-read=2 / cplxblur=20.0 / qblur=0.5 / ipratio=1.10 / pbratio=1.00 / aq-mode=0 / aq-strength=0.00 / no-cutree / zone-count=0 / no-strict-cbr / qg-size=64 / rc-grain / qpmax=69 / qpmin=0 / sar=1 / overscan=0 / videoformat=5 / range=0 / colorprim=2 / transfer=2 / colormatrix=2 / chromaloc=0 / display-window=0 / max-cll=0,0 / min-luma=0 / max-luma=1023 / log2-max-poc-lsb=8 / vui-timing-info / vui-hrd-info / slices=1 / opt-qp-pps / opt-ref-list-length-pps / no-multi-pass-opt-rps / scenecut-bias=0.05 / no-opt-cu-delta-qp / no-aq-motion / no-hdr / no-hdr-opt / refine-level=5 / no-limit-sao
Default : Да
Forced : Нет

Аудио
Идентификатор : 2
Формат : DTS
Формат/Информация : Digital Theater Systems
Идентификатор кодека : A_DTS
Продолжительность : 1 ч. 49 м.
Вид битрейта : Постоянный
Битрейт : 768 Кбит/сек
Каналы : 6 каналов
Channel layout : C L R Ls Rs LFE
Частота : 48,0 КГц
Частота кадров : 93,750 кадра/сек (512 SPF)
Битовая глубина : 24 бит
Метод сжатия : С потерями
Размер потока : 601 Мбайт (16%)
Заголовок : DUB [BD EUR]
Язык : Russian
Default : Да
Forced : Нет

Текст
Идентификатор : 3
Формат : UTF-8
Идентификатор кодека : S_TEXT/UTF8
Идентификатор кодека/Информация : UTF-8 Plain Text
Продолжительность : 1 ч. 43 м.
Битрейт : 87 бит/сек
ElementCount : 1259
Размер потока : 65,8 Кбайт (0%)
Заголовок : Full
Язык : Russian
Default : Нет
Forced : Нет

Меню
00:00:00.000 : :Chapter 01
00:03:14.819 : :Chapter 02
00:04:54.585 : :Chapter 03
00:07:25.153 : :Chapter 04
00:10:07.189 : :Chapter 05
00:15:11.076 : :Chapter 06
00:21:10.185 : :Chapter 07
00:25:47.254 : :Chapter 08
00:29:47.869 : :Chapter 09
00:34:42.246 : :Chapter 10
00:38:41.277 : :Chapter 11
00:45:05.869 : :Chapter 12
00:49:22.793 : :Chapter 13
00:55:30.076 : :Chapter 14
00:58:45.772 : :Chapter 15
01:00:52.023 : :Chapter 16
01:05:16.454 : :Chapter 17
01:08:33.400 : :Chapter 18
01:11:21.151 : :Chapter 19
01:15:03.373 : :Chapter 20
01:18:32.249 : :Chapter 21
01:20:56.518 : :Chapter 22
01:23:44.227 : :Chapter 23
01:27:14.103 : :Chapter 24
01:33:22.888 : :Chapter 25
01:35:40.901 : :Chapter 26
01:40:31.275 : :Chapter 27
01:43:49.389 : :Chapter 28
скриншот  скриншот  скриншот  скриншот  

© Оформление by DD2D3 piratbit.org



Скачать Соседка через торрент https://funkyimg.com/i/2XaRP.jpg Скачать фильм Соседка через торрент бесплантно в хорошем качестве Описание: Старшеклассник Меттью, мечтая о карьере политика, между тем обнаруживает, что у него появилась новая соседка, неотразимая ... 10 10 6
Торрент: Зарегистрирован [2019-09-21 09:43] · скачан: 71 раз
Статус: √ проверено
Размер: 3.65 GB
Как cкачать? Как скачать Соседка через торрент | qTorrent

% Раздел Тема Автор DL S | L
Фильмы (HD 720p, 1080p) (48-60 fps) [ 6.86 GB ] Соседка / The Girl Next Door [2004 BDRip 720p 60 fps от еnvy / NNNB] Unrated version | DUB еnvy Скачать
7 | 2
# Фильмы [HD 720p, 1080p] (Хороший звук DUB, MVO) [ 12.52 GB ] Соседка / The Girl Next Door [2004 BDRip 1080p] / Расширенная версия / Dub 3x MVO 2х AVO -Lexx- Скачать
3 | 0


>> Регистрируемся здесь <<






Отзывы и комментарии о схеме читаем и пишем здесь: ---> Отзывы и комментарии о схеме

Новые благодарочки в телеграм довольных пользователей:
скриншот   скриншот   скриншот   скриншот   скриншот
    Дорогой пользователь! Огромная просьба, поблагодарите релизера, оцените раздачу и оставьте свои комментарий, если Вы скачали Соседка через торрент бесплатно! Внесите свою лепту в развитие PiratBit!
    Комментировать посты могут только пользователи прошедшие не сложную регистрацию
    Показать сообщения:    

    Соседка через торрент
    Скачать бесплатно Соседка
    Соседка скачать торрент
    Соседка смотреть онлайн
    Cкачать фильм Соседка бесплатно
    Соседка скачать торрент в хорошем качестве
    Соседка смотреть онлайн бесплатно в хорошем качестве


    Вы не можете начинать темы
    Вы не можете отвечать на сообщения
    Вы не можете редактировать свои сообщения
    Вы не можете удалять свои сообщения
    Вы не можете голосовать в опросах
    Вы не можете прикреплять файлы к сообщениям
    Вы можете скачивать файлы