MEGA NEWS Получи личный уникальный адрес сайта и защити себя от блокировок. Внимание количество ограничено!!!

iTunes

1+1

iTunes

мы

iTunes

1

iTunes

Чернобыль

iTunes

Ральф против интернета

Лицензия

ПШазам

Лицензия

Игра престолов

Лицензия

30
pack

ВАЖНО

!!Акция!!

Alien_RageХит недели

RePack

Resident Evil 21

ИГРА 18+

pack

RePack

Metro:Exodus

!!Акция!!

Alien_Rage

RePack

fifa19

RePack

Assassins Creed: Odyssey

RePack

NEED FOR SPEED™ PAYBACK

3 сезон

9 сезон

Бесстыжие 9 сезон

Все сериалы

все сериалы на PB.wtf

RePack

FAR CRY 5
Ребята, катастрофически не хватает 1900р. для оплаты серверов за АВГУСТ (всвязи с блокировками трафик упал в 3 раза), 1-2р., выручайте.
  

Американская история ужасов / American Horror Story / Сезон: 9 / Серии: 1-4 из 10 (Мэри Вигмор, Лони Перистер, Джон Дж. Грэй) [2019, ужасы, триллер, драма, WEB-DLRip] [MVO] (Jaskier) piratbit.org

Американская история ужасов через торрент piratbit.org

Качают: 1 [ 0 KB/s ]
Размер: 1.97 GB | Добавлен: 4 д. назад | Торрент скачан:1 раз
Скачать  

21-09-2019 19:59 Американская история ужасов Скачать торрент  

Американская история ужасов / American Horror Story

Год выпуска: 2019
Страна: США
Жанр: ужасы, триллер, драма
Продолжительность: ~ 00:44:00

Перевод: Профессиональный (многоголосый закадровый) | Jaskier

Режиссёр: Мэри Вигмор, Лони Перистер, Джон Дж. Грэй

В ролях: Эмма Робертс, Билли Лурд, Коди Ферн, Лесли Эрин Гроссман, Мэттью Моррисон, Джон Кэрролл Линч, Анджелика Росс, Гас Кенуорти, Зэк Вилла, Сара Полсон

Описание: После призраков, клоунов и ведьм настал черед слэшеров 1980-х, где незадачливых подростков убивает незнакомец с ножом и в маске. По всем правилам жанра истории об убийце полушепотом пересказывают вокруг костра, в деле замешаны прошлые преступления и не самая надежная психиатрическая больница.

rating

Качество: WEB-DLRip
Формат: AVI
Видео: XviD, ~ 1400 kbps, 720x400, 23.976 fps
Аудио 1: MP3, 48,0 КГц, 2 ch, 128 kbps - RUS
Аудио 2: MP3, 48,0 КГц, 2 ch, 128 kbps - ENG
Субтитры: отсутствуют
Реклама: аудио, два раза в начале и в конце по 13 секунд
Общее
Полное имя : V:\American.Horror.Story. Season 9 (400p l Jaskier)\American.Horror.Story.S09E01.400p.Jaskier.avi
Формат : AVI
Формат/Информация : Audio Video Interleave
Размер файла : 575 Мбайт
Продолжительность : 48 м.
Общий поток : 1669 Кбит/сек
Программа кодирования : VirtualDubMod 1.5.10.3 | www.virtualdub-fr.org || (build 2550/release)
Библиотека кодирования : VirtualDubMod build 2550/release

Видео
Идентификатор : 0
Формат : MPEG-4 Visual
Профиль формата : Advanced Simple@L5
Параметр BVOP формата : 2
Параметр QPel формата : Нет
Параметр GMC формата : Без точки перехода
Параметр матрицы формата : Выборочная
Идентификатор кодека : XVID
Идентификатор кодека/Подсказка : XviD
Продолжительность : 48 м.
Битрейт : 1400 Кбит/сек
Ширина : 720 пикселей
Высота : 400 пикселей
Соотношение сторон : 16:9
Частота кадров : 23,976 (23976/1000) кадра/сек
Цветовое пространство : YUV
Субдискретизация насыщенности : 4:2:0
Битовая глубина : 8 бит
Тип развёртки : Прогрессивная
Метод сжатия : С потерями
Бит/(Пиксели*Кадры) : 0.203
Размер потока : 482 Мбайт (84%)
Библиотека кодирования : XviD 73

Аудио #1
Идентификатор : 1
Формат : MPEG Audio
Версия формата : Version 1
Профиль формата : Layer 3
Режим : Joint stereo
Расширение режима : MS Stereo
Идентификатор кодека : 55
Идентификатор кодека/Подсказка : MP3
Продолжительность : 48 м.
Вид битрейта : Постоянный
Битрейт : 128 Кбит/сек
Каналы : 2 канала
Частота : 48,0 КГц
Метод сжатия : С потерями
Размер потока : 44,1 Мбайт (8%)
Выравнивание : Соединение по промежуткам
Продолжительность промежутка : 42 мс. (1,00 видеокадр)
Время предзагрузки промежутка : 504 мс.

Аудио #2
Идентификатор : 2
Формат : MPEG Audio
Версия формата : Version 1
Профиль формата : Layer 3
Режим : Joint stereo
Расширение режима : MS Stereo
Идентификатор кодека : 55
Идентификатор кодека/Подсказка : MP3
Продолжительность : 48 м.
Вид битрейта : Постоянный
Битрейт : 128 Кбит/сек
Каналы : 2 канала
Частота : 48,0 КГц
Метод сжатия : С потерями
Размер потока : 44,1 Мбайт (8%)
Выравнивание : Соединение по промежуткам
Продолжительность промежутка : 42 мс. (1,00 видеокадр)
Время предзагрузки промежутка : 504 мс.
скриншот  скриншот  скриншот  
Когда раздача ведётся путём добавления новых серий, при каждом добавлении создётся новый торрент. Чтобы начать докачку новой серии, пользователям необходимо сделать следующее:
(1) остановить скачивание,
(2) удалить старый торрент у себя из клиента (старые серии удалять не надо),
(3) скачать новый торрент и запустить его у себя в клиенте вместо старого, при этом указать клиенту путь в старую папку, куда и должно происходить скачивание новых серий.
Ваш клиент при этом должен произвести хеширование (проверку) старой папки (если не производит сам - помогите ему сделать это), и будет докачивать только те серии, которых у вас ещё нет. Старые серии при этом не удаляются, а продолжают раздаваться!
Eсли вы уже удалили старые серии, то предотвратить повторную закачку старых серий можно, отжав галочку в соответсвующих местах при запуске нового торрента. По возможности, желательно не удалять старые серии как можно дольше, чтобы релизёр не столько продолжал раздавать старые серии, а смог сконцентрироваться на новых.
piratbit.org



Скачать Американская история ужасов через торрент https://i90.fastpic.ru/big/2019/0921/55/ecec001a9ba548a7f8c00c179916cc55.png Скачать фильм Американская история ужасов через торрент бесплантно в хорошем качестве Описание: После призраков, клоунов и ведьм настал черед слэшеров 1980-х, где незадачливых подростков убивает незнакомец с ножом и в маске. ... 10 10 1
Торрент: Зарегистрирован [2019-10-12 16:36] · скачан: 1 раз
Статус: √ проверено
Размер: 1.97 GB
Как cкачать? Как скачать Американская история ужасов через торрент | qTorrent

% Раздел Тема Автор DL S | L
Американская история ужасов [ 5.95 GB ] Американская история ужасов / American Horror Story / Сезон: 9 / Серии: 1-4 из 10 [2019 WEB-DL 720p] MVO [NewStudio] bober100 Скачать
1 | 1
Американская история ужасов [ 9.61 GB ] Американская история ужасов / American Horror Story / Сезон: 9 / Серии: 1-4 из 10 [2019 WEB-DL 1080p] MVO [Amedia / Novamedia] bober100 Скачать
1 | 1
Американская история ужасов [ 5.34 GB ] Американская история ужасов / American Horror Story / Сезон: 9 / Серии: 1-4 из 10 [2019 WEB-DL 720p] [MVO] killermax2013 Скачать
3 | 2
Американская история ужасов [ 9.56 GB ] Американская история ужасов / American Horror Story / Сезон: 9 / Серии: 1-4 из 10 [2019 WEB-DL 1080p] [MVO] killermax2013 Скачать
1 | 1
Американская история ужасов [ 2.36 GB ] Американская история ужасов / American Horror Story / Сезон: 9 / Серии: 1-4 из 10 [2019 WEB-DLRip] MVO [Amedia] bober100 Скачать
1 | 0
Американская история ужасов [ 10.14 GB ] Американская история ужасов / American Horror Story / Сезон: 9 / Серия: 1-4 из 10 [2019 WEB-DL 1080p] MVO [LostFilm] bober100 Скачать
3 | 2
Американская история ужасов [ 9.54 GB ] Американская история ужасов / American Horror Story / Сезон: 9 / Серии: 1-4 из 10 [2019 WEB-DL 1080p] MVO [Jaskier] bober100 Скачать
1 | 1


>> Регистрируемся здесь <<






Отзывы и комментарии о схеме читаем и пишем здесь: ---> Отзывы и комментарии о схеме

Новые благодарочки в телеграм довольных пользователей:
скриншот   скриншот   скриншот   скриншот   скриншот
    Дорогой пользователь! Огромная просьба, поблагодарите релизера, оцените раздачу и оставьте свои комментарий, если Вы скачали Американская история ужасов через торрент бесплатно! Внесите свою лепту в развитие PiratBit!
    Комментировать посты могут только пользователи прошедшие не сложную регистрацию
    Показать сообщения:    

    Американская история ужасов через торрент
    Скачать бесплатно Американская история ужасов
    Американская история ужасов скачать торрент
    Американская история ужасов смотреть онлайн
    Cкачать фильм Американская история ужасов бесплатно
    Американская история ужасов скачать торрент в хорошем качестве
    Американская история ужасов смотреть онлайн бесплатно в хорошем качестве


    Вы не можете начинать темы
    Вы не можете отвечать на сообщения
    Вы не можете редактировать свои сообщения
    Вы не можете удалять свои сообщения
    Вы не можете голосовать в опросах
    Вы не можете прикреплять файлы к сообщениям
    Вы можете скачивать файлы