Достать ножи: Стеклянная луковица

MVO

Добыча

Дубляж

Уэнсдэй

1 сезон

Тор

Дубляж

13 клиническая

1 сезон

Жестокая ночь

MVO

Одни из нас

1 сезон

Deluxe

pack

Рекомендуем

30

Пиратка

ВАЖНО

ВАЖНО

Ghostwire

Пиратка

jed

RePack

nioh2

RePack

RDR2

RePack

NEED FOR SPEED™ PAYBACK

RePack

скачать торрент

Кинопоиск HD

Острые козырьки 6 сезон

6 сезон

FAR CRY 6

RePack

скачать торрент

Лицензия

скачать торрент

MVO

1

1 сезон

скачать торрент

1 сезон

скачать торрент

Лицензия

  

Стражи Галактики / Guardians of the Galaxy (Джеймс Ганн) [2014, Фантастика, боевик, приключения, UHD BDRemux 2160p] 2xDUB (rus, ukr) [Лицензия] +MVO+5xAVO

Стражи Галактики через торрент piratbit.org

Размер: 77.35 GB | Добавлен: 3 года 4 мес. назад | Торрент скачан:154 раза
Смотреть онлайн | Скачать | Поддержите нас   

22-09-2019 09:09 Стражи Галактики Скачать торрент  

Стражи Галактики / Guardians of the Galaxy
Год выпуска: 2014
Страна: США, Великобритания
Жанр: Фантастика, боевик, приключения
Продолжительность: 02:01:08
Перевод: Дублированный | Лицензия, Авторский, Многоголосый многоголосый
Субтитры: Русские, английские, украинские (форс.)

Режиссер: Джеймс Ганн

rating

В ролях: Крис Прэтт, Зои Салдана, Дэйв Батиста, Брэдли Купер, Вин Дизель, Ли Пейс, Майкл Рукер, Карен Гиллан, Гленн Клоуз, Джимон Хонсу, Джон С. Райлли, Бенисио Дель Торо, Лора Хэддок, Шон Ганн, Питер Серафинович, Кристофер Фэйрбэнк, Кристиан Годлевски, Уайатт Олефф, Грегг Генри, Дженис Ахерн

Описание: Отважному путешественнику Питеру Квиллу попадает в руки таинственный артефакт, принадлежащий могущественному и безжалостному злодею Ронану, строящему коварные планы по захвату Вселенной. Питер оказывается в центре межгалактической охоты, где жертва — он сам.Единственный способ спасти свою жизнь — объединиться с четверкой нелюдимых изгоев: воинственным енотом по кличке Ракета, человекоподобным деревом Грутом, смертельно опасной Гаморой и одержимым жаждой мести Драксом, также известным как Разрушитель. Когда Квилл понимает, какой силой обладает украденный артефакт и какую опасность он представляет для вселенной, одиночка пойдет на все, чтобы сплотить случайных союзников для решающей битвы за судьбу галактики.

Качество: UHD BDRemux 2160p
Формат: MKV

Видео: HEVC HDR, 49.6 Mбит/с, 3840x2160
Аудио 1: Русский 48 kHz, AC3, 6 каналов 640 kbps |Дублированный| BD-EUR
Аудио 2: Русский 48 kHz/24-bit, DTS-HD MA, 8 каналов 4868 kbps |Дублированный| Custom Sergesha
Аудио 3: Русский 48 kHz/24-bit, DTS-HD MA, 8 каналов 4635 kbps |Многоголосый , Омикрон|
Аудио 4: Русский 48 kHz/24-bit, DTS-HD MA, 8 каналов 4636 kbps |Авторский, Сербин|
Аудио 5: Русский 48 kHz/24-bit, DTS-HD MA, 8 каналов 4650 kbps |Авторский, Живов|
Аудио 6: Русский 48 kHz/24-bit, DTS-HD MA, 8 каналов 4708 kbps |Авторский, , Матвеев (Doctor Joker)|
Аудио 7: Русский 48 kHz/24-bit, DTS-HD MA, 8 каналов 4703 kbps |Авторский, , Есарев|
Аудио 8: Русский 48 kHz/24-bit, DTS-HD MA, 8 каналов 4625 kbps |Авторский, Карповский|
Аудио 9: Украинский 48 kHz/24-bit, DTS-HD MA, 8 каналов 3260 kbps |Дублированный|
Аудио 10: Английский 48 kHz/24-bit, TrueHD, 8 каналов 4300 kbps |Original|
скриншот  скриншот  скриншот  

скриншот  скриншот  скриншот  

General

Unique ID : 334334315761548031309724268211675211759 (0xFB86726FA64EAD0692009ECBF41627EF)

Complete name : Guardians.of.the Galaxy.2014.UHD.BDRemux.2160p.HEVC.HDR.IVA(8xRUS.UKR.ENG).ExKinoRay.mkv

Format : Matroska

Format version : Version 4

File size : 77.4 GiB

Duration : 2 h 1 min

Overall bit rate mode : Variable

Overall bit rate : 91.4 Mb/s

Movie name : Стражи Галактики / Guardians of the Galaxy ( 2014 ) UHD BDRemux | HDR, 4K | IVA(RUS.UKR.ENG) | ExKinoRay

Encoded date : UTC 2019-09-22 07:26:15

Writing application : mkvmerge v37.0.0 ('Leave It') 64-bit

Writing library : libebml v1.3.9 + libmatroska v1.5.2

Cover : Yes

Attachments : cover

Video

ID : 1

Format : HEVC

Format/Info : High Efficiency Video Coding

Format profile : Main 10@L5.1@High

HDR format : SMPTE ST 2086, HDR10 compatible

Codec ID : V_MPEGH/ISO/HEVC

Duration : 2 h 0 min

Bit rate : 49.6 Mb/s

Width : 3 840 pixels

Height : 2 160 pixels

Display aspect ratio : 16:9

Frame rate mode : Constant

Frame rate : 23.976 (24000/1001) FPS

Color space : YUV

Chroma subsampling : 4:2:0 (Type 2)

Bit depth : 10 bits

Bits/(Pixel*Frame) : 0.249

Stream size : 41.8 GiB (54%)

Title : BDRemux.2160p.HDR

Default : Yes

Forced : No

Color range : Limited

Color primaries : BT.2020

Transfer characteristics : PQ

Matrix coefficients : BT.2020 non-constant

Mastering display color primaries : Display P3

Mastering display luminance : min: 0.0050 cd/m2, max: 4000 cd/m2

Maximum Content Light Level : 577 cd/m2

Maximum Frame-Average Light Level : 512 cd/m2

Audio #1

ID : 2

Format : AC-3

Format/Info : Audio Coding 3

Commercial name : Dolby Digital

Codec ID : A_AC3

Duration : 2 h 0 min

Bit rate mode : Constant

Bit rate : 640 kb/s

Channel(s) : 6 channels

Channel layout : L R C LFE Ls Rs

Sampling rate : 48.0 kHz

Frame rate : 31.250 FPS (1536 SPF)

Compression mode : Lossy

Stream size : 553 MiB (1%)

Title : Дублированный, BD-EUR

Language : Russian

Service kind : Complete Main

Default : Yes

Forced : No

Audio #2

ID : 3

Format : DTS XLL

Format/Info : Digital Theater Systems

Commercial name : DTS-HD Master Audio

Codec ID : A_DTS

Duration : 2 h 0 min

Bit rate mode : Variable

Bit rate : 4 567 kb/s

Channel(s) : 8 channels

Channel layout : C L R LFE Lb Rb Lss Rss

Sampling rate : 48.0 kHz

Frame rate : 93.750 FPS (512 SPF)

Bit depth : 24 bits

Compression mode : Lossless

Stream size : 3.86 GiB (5%)

Title : Дублированный, Custom (Sergesha)

Language : Russian

Default : No

Forced : No

Audio #3

ID : 4

Format : DTS XLL

Format/Info : Digital Theater Systems

Commercial name : DTS-HD Master Audio

Codec ID : A_DTS

Duration : 2 h 0 min

Bit rate mode : Variable

Bit rate : 4 635 kb/s

Channel(s) : 8 channels

Channel layout : C L R LFE Lb Rb Lss Rss

Sampling rate : 48.0 kHz

Frame rate : 93.750 FPS (512 SPF)

Bit depth : 24 bits

Compression mode : Lossless

Stream size : 3.91 GiB (5%)

Title : MVO, студия "Омикрон"

Language : Russian

Default : No

Forced : No

Audio #4

ID : 5

Format : DTS XLL

Format/Info : Digital Theater Systems

Commercial name : DTS-HD Master Audio

Codec ID : A_DTS

Duration : 2 h 0 min

Bit rate mode : Variable

Bit rate : 4 636 kb/s

Channel(s) : 8 channels

Channel layout : C L R LFE Lb Rb Lss Rss

Sampling rate : 48.0 kHz

Frame rate : 93.750 FPS (512 SPF)

Bit depth : 24 bits

Compression mode : Lossless

Stream size : 3.91 GiB (5%)

Title : AVO, Ю.Сербин

Language : Russian

Default : No

Forced : No

Audio #5

ID : 6

Format : DTS XLL

Format/Info : Digital Theater Systems

Commercial name : DTS-HD Master Audio

Codec ID : A_DTS

Duration : 2 h 0 min

Bit rate mode : Variable

Bit rate : 4 650 kb/s

Channel(s) : 8 channels

Channel layout : C L R LFE Lb Rb Lss Rss

Sampling rate : 48.0 kHz

Frame rate : 93.750 FPS (512 SPF)

Bit depth : 24 bits

Compression mode : Lossless

Stream size : 3.93 GiB (5%)

Title : AVO, Ю.Живов

Language : Russian

Default : No

Forced : No

Audio #6

ID : 7

Format : DTS XLL

Format/Info : Digital Theater Systems

Commercial name : DTS-HD Master Audio

Codec ID : A_DTS

Duration : 2 h 0 min

Bit rate mode : Variable

Bit rate : 4 708 kb/s

Channel(s) : 8 channels

Channel layout : C L R LFE Lb Rb Lss Rss

Sampling rate : 48.0 kHz

Frame rate : 93.750 FPS (512 SPF)

Bit depth : 24 bits

Compression mode : Lossless

Stream size : 3.97 GiB (5%)

Title : AVO, А.Матвеев

Language : Russian

Default : No

Forced : No

Audio #7

ID : 8

Format : DTS XLL

Format/Info : Digital Theater Systems

Commercial name : DTS-HD Master Audio

Codec ID : A_DTS

Duration : 2 h 0 min

Bit rate mode : Variable

Bit rate : 4 703 kb/s

Channel(s) : 8 channels

Channel layout : C L R LFE Lb Rb Lss Rss

Sampling rate : 48.0 kHz

Frame rate : 93.750 FPS (512 SPF)

Bit depth : 24 bits

Compression mode : Lossless

Stream size : 3.97 GiB (5%)

Title : AVO, Д.Есарев

Language : Russian

Default : No

Forced : No

Audio #8

ID : 9

Format : DTS XLL

Format/Info : Digital Theater Systems

Commercial name : DTS-HD Master Audio

Codec ID : A_DTS

Duration : 2 h 0 min

Bit rate mode : Variable

Bit rate : 4 625 kb/s

Channel(s) : 8 channels

Channel layout : C L R LFE Lb Rb Lss Rss

Sampling rate : 48.0 kHz

Frame rate : 93.750 FPS (512 SPF)

Bit depth : 24 bits

Compression mode : Lossless

Stream size : 3.90 GiB (5%)

Title : AVO, А.Карповский

Language : Russian

Default : No

Forced : No

Audio #9

ID : 10

Format : DTS XLL

Format/Info : Digital Theater Systems

Commercial name : DTS-HD Master Audio

Codec ID : A_DTS

Duration : 2 h 1 min

Bit rate mode : Variable

Bit rate : 3 862 kb/s

Channel(s) : 6 channels

Channel layout : C L R Ls Rs LFE

Sampling rate : 48.0 kHz

Frame rate : 93.750 FPS (512 SPF)

Bit depth : 24 bits

Compression mode : Lossless

Stream size : 3.27 GiB (4%)

Title : Дублированный

Language : Ukrainian

Default : No

Forced : No

Audio #10

ID : 11

Format : MLP FBA 16-ch

Format/Info : Meridian Lossless Packing FBA with 16-channel presentation

Commercial name : Dolby TrueHD with Dolby Atmos

Codec ID : A_TRUEHD

Duration : 2 h 0 min

Bit rate mode : Variable

Bit rate : 4 299 kb/s

Maximum bit rate : 7 017 kb/s

Channel(s) : 8 channels

Channel layout : L R C LFE Ls Rs Lb Rb

Sampling rate : 48.0 kHz

Frame rate : 1 200.000 FPS (40 SPF)

Compression mode : Lossless

Stream size : 3.63 GiB (5%)

Title : Original

Language : English

Default : No

Forced : No

Number of dynamic objects : 13

Bed channel count : 1 channel

Bed channel configuration : LFE

Audio #11

ID : 12

Format : AC-3

Format/Info : Audio Coding 3

Commercial name : Dolby Digital

Codec ID : A_AC3

Duration : 2 h 0 min

Bit rate mode : Constant

Bit rate : 640 kb/s

Channel(s) : 6 channels

Channel layout : L R C LFE Ls Rs

Sampling rate : 48.0 kHz

Frame rate : 31.250 FPS (1536 SPF)

Compression mode : Lossy

Stream size : 553 MiB (1%)

Title : Original

Language : English

Service kind : Complete Main

Default : No

Forced : No

Text #1

ID : 13

Format : UTF-8

Codec ID : S_TEXT/UTF8

Codec ID/Info : UTF-8 Plain Text

Duration : 1 h 53 min

Bit rate : 0 b/s

Count of elements : 11

Stream size : 450 Bytes (0%)

Title : Forced

Language : Russian

Default : Yes

Forced : Yes

Text #2

ID : 14

Format : UTF-8

Codec ID : S_TEXT/UTF8

Codec ID/Info : UTF-8 Plain Text

Duration : 1 h 53 min

Bit rate : 0 b/s

Count of elements : 11

Stream size : 479 Bytes (0%)

Title : Forced

Language : Ukrainian

Default : No

Forced : Yes

Text #3

ID : 15

Format : UTF-8

Codec ID : S_TEXT/UTF8

Codec ID/Info : UTF-8 Plain Text

Duration : 2 h 0 min

Bit rate : 72 b/s

Count of elements : 1412

Stream size : 63.6 KiB (0%)

Title : Full

Language : Russian

Default : No

Forced : No

Text #4

ID : 16

Format : UTF-8

Codec ID : S_TEXT/UTF8

Codec ID/Info : UTF-8 Plain Text

Duration : 2 h 0 min

Bit rate : 60 b/s

Count of elements : 1077

Stream size : 53.0 KiB (0%)

Title : Full

Language : English

Default : No

Forced : No

Text #5

ID : 17

Format : UTF-8

Codec ID : S_TEXT/UTF8

Codec ID/Info : UTF-8 Plain Text

Duration : 2 h 0 min

Bit rate : 66 b/s

Count of elements : 1666

Stream size : 58.6 KiB (0%)

Title : SDH

Language : English

Default : No

Forced : No

Menu

00:00:00.000 : en:Prologue

00:04:05.704 : en:Morag

00:11:21.806 : en:Ronan The Accuser

00:15:21.712 : en:A Man Of Honor

00:20:54.420 : en:The Kyln

00:27:11.213 : en:Crimes Against The Galaxy

00:33:58.828 : en:Escaping the Kyln

00:44:28.291 : en:Knowhere

00:50:53.008 : en:I Do Not Dance

00:55:17.564 : en:The Collector

00:59:45.207 : en:Facing Off With Ronan

01:06:06.921 : en:Something Incredibly Heroic

01:14:46.023 : en:12 Percent Of A Plan

01:22:20.644 : en:The Fleet Approaches

01:26:29.726 : en:Inside The Dark Aster

01:30:23.877 : en:Destroying Xandar

01:35:58.378 : en:Protecting The Guardians

01:40:46.749 : en:Guardians Of The Galaxy

01:47:35.366 : en:Guardians Pardoned

01:53:16.623 : en:End Credits

02:00:10.829 : en:End Tag




Скачать Стражи Галактики через торрент https://a.radikal.ru/a35/1909/5d/70d3a5cda5f6.jpg Скачать, смотреть онлайн Стражи Галактики бесплантно в хорошем качестве Описание: Отважному путешественнику Питеру Квиллу попадает в руки таинственный артефакт, принадлежащий могущественному и безжалостному ... 10 10 6
Торрент: Зарегистрирован [2019-09-22 09:09] · скачан: 154 раз
Статус: √ проверено
Размер: 77.35 GB
Как cкачать? Как скачать Стражи Галактики через торрент | UTorrent

28-11-2019 20:33  


Отключить вcю реклaмy на сайте, в т.ч. и в плеере онлайн просмотра!

    Дорогой пользователь! Огромная просьба, поблагодарите релизера, оцените раздачу и оставьте свои комментарий, если Вы скачали Стражи Галактики через торрент бесплатно!!
    Комментировать посты могут только пользователи прошедшие не сложную регистрацию
    Показать сообщения:    


    Стражи Галактики через торрент
    Скачать бесплатно Стражи Галактики
    Стражи Галактики скачать торрент
    Стражи Галактики смотреть онлайн
    Cкачать фильм Стражи Галактики бесплатно
    Стражи Галактики скачать торрент в хорошем качестве
    Стражи Галактики смотреть онлайн бесплатно в хорошем качестве
    Вы не можете начинать темы
    Вы не можете отвечать на сообщения
    Вы не можете редактировать свои сообщения
    Вы не можете удалять свои сообщения
    Вы не можете голосовать в опросах
    Вы не можете прикреплять файлы к сообщениям
    Вы можете скачивать файлы
    Стражи Галактики / Guardians of the Galaxy [2014, Фантастика, боевик, приключения, UHD BDRemux 2160p] 2xDUB [Лицензия] +MVO+5xAVO смотреть онлайн, скачать торрент picoco.icu