новый адрес пиратбит piratbit
Мега распродажа FORZA HORIZON 4 ULTIMATE+ВСЕ DLC+ОНЛАЙН всего за 499р. 349 руб. (супер цена). Внимание количество ограничено!!!

iTunes

1+1

iTunes

мы

iTunes

1

iTunes

Чернобыль

iTunes

Ральф против интернета

Лицензия

ПШазам

Лицензия

Игра престолов

Лицензия

30
pack

ВАЖНО

!!Акция!!

Alien_RageХит недели

RePack

Resident Evil 21

ИГРА 18+

pack

RePack

Metro:Exodus

!!Акция!!

Alien_Rage

RePack

fifa19

RePack

Assassins Creed: Odyssey

RePack

NEED FOR SPEED™ PAYBACK

3 сезон

9 сезон

Бесстыжие 9 сезон

Все сериалы

все сериалы на PB.wtf

RePack

FAR CRY 5
Ребята, катастрофически не хватает 1900р. для оплаты серверов за Октябрь (всвязи с блокировками трафик упал в 3 раза), 1-2р., выручайте.
  

Американская история ужасов / American Horror Story / Сезон: 9 / Серии: 1-8 из 10 (Мэри Вигмор, Лони Перистер, Джон Дж. Грэй) [2019, ужасы, триллер, драма, WEB-DL 1080p] [MVO] (TVShows) piratbit.org

Американская история ужасов через торрент piratbit.org

Размер: 19.52 GB | Добавлен: 1 д. 17 ч. назад | Торрент скачан:0 раз
Скачать  

22-09-2019 13:28 Американская история ужасов Скачать торрент  

Американская история ужасов / American Horror Story

Год выпуска: 2019
Страна: США
Жанр: ужасы, триллер, драма
Продолжительность: ~ 00:44:00

Перевод: Профессиональный (многоголосый закадровый) | *TVSHows*

Режиссёр: Мэри Вигмор, Лони Перистер, Джон Дж. Грэй

В ролях: Эмма Робертс, Билли Лурд, Коди Ферн, Лесли Эрин Гроссман, Мэттью Моррисон, Джон Кэрролл Линч, Анджелика Росс, Гас Кенуорти, Зэк Вилла, Сара Полсон

Описание: После призраков, клоунов и ведьм настал черед слэшеров 1980-х, где незадачливых подростков убивает незнакомец с ножом и в маске. По всем правилам жанра истории об убийце полушепотом пересказывают вокруг костра, в деле замешаны прошлые преступления и не самая надежная психиатрическая больница.

ratingскриншот  

Качество: WEB-DL 1080p
Формат: MKV
Видео: X264, ~ 10 000 kbps, 1920x1080, 23.976 fps
Аудио 1: AC3, 48,0 КГц, 6 ch, 448 kbps - RUS
Аудио 2: E-AC3, 48,0 КГц, 6 ch, 640 kbps - ENG
Субтитры: english
General
Unique ID : 83517592668963493401119830183704555351 (0x3ED4E73C135379D8A16EAA49BDD86F57)
Complete name : E:\American.Horror.Story.S09.1080p.TVShows\American.Horror.Story.S09E01.1080p.TVShows.mkv
Format : Matroska
Format version : Version 4 / Version 2
File size : 3.40 GiB
Duration : 48 min 10 s
Overall bit rate : 10.1 Mb/s
Encoded date : UTC 2019-09-22 08:08:10
Writing application : mkvmerge v33.1.0 ('Primrose') 64-bit
Writing library : libebml v1.3.7 + libmatroska v1.5.0

Video
ID : 1
Format : AVC
Format/Info : Advanced Video Codec
Format profile : High@L4
Format settings : CABAC / 4 Ref Frames
Format settings, CABAC : Yes
Format settings, RefFrames : 4 frames
Codec ID : V_MPEG4/ISO/AVC
Duration : 48 min 10 s
Bit rate mode : Constant
Bit rate : 8 815 kb/s
Nominal bit rate : 10 000 kb/s
Width : 1 920 pixels
Height : 1 080 pixels
Display aspect ratio : 16:9
Frame rate mode : Constant
Frame rate : 23.976 (24000/1001) FPS
Color space : YUV
Chroma subsampling : 4:2:0
Bit depth : 8 bits
Scan type : Progressive
Bits/(Pixel*Frame) : 0.177
Stream size : 2.97 GiB (87%)
Language : English
Default : Yes
Forced : No
Color range : Limited
Color primaries : BT.709
Transfer characteristics : BT.709
Matrix coefficients : BT.709

Audio #1
ID : 2
Format : AC-3
Format/Info : Audio Coding 3
Format settings, Endianness : Big
Codec ID : A_AC3
Duration : 48 min 10 s
Bit rate mode : Constant
Bit rate : 448 kb/s
Channel(s) : 6 channels
Channel positions : Front: L C R, Side: L R, LFE
Sampling rate : 48.0 kHz
Frame rate : 31.250 FPS (1536 SPF)
Bit depth : 16 bits
Compression mode : Lossy
Stream size : 154 MiB (4%)
Title : TVShows
Language : Russian
Service kind : Complete Main
Default : Yes
Forced : Yes

Audio #2
ID : 3
Format : E-AC-3
Format/Info : Enhanced Audio Coding 3
Format settings, Endianness : Big
Codec ID : A_EAC3
Duration : 48 min 10 s
Bit rate mode : Constant
Bit rate : 640 kb/s
Channel(s) : 6 channels
Channel positions : Front: L C R, Side: L R, LFE
Sampling rate : 48.0 kHz
Frame rate : 187.500 FPS (256 SPF)
Compression mode : Lossy
Delay relative to video : 30 ms
Stream size : 221 MiB (6%)
Title : Original
Language : English
Service kind : Complete Main
Default : No
Forced : No

Text
ID : 4
Format : UTF-8
Codec ID : S_TEXT/UTF8
Codec ID/Info : UTF-8 Plain Text
Title : English
Language : English
Default : No
Forced : No
скриншот  скриншот  скриншот  
Когда раздача ведётся путём добавления новых серий, при каждом добавлении создётся новый торрент. Чтобы начать докачку новой серии, пользователям необходимо сделать следующее:
(1) остановить скачивание,
(2) удалить старый торрент у себя из клиента (старые серии удалять не надо),
(3) скачать новый торрент и запустить его у себя в клиенте вместо старого, при этом указать клиенту путь в старую папку, куда и должно происходить скачивание новых серий.
Ваш клиент при этом должен произвести хеширование (проверку) старой папки (если не производит сам - помогите ему сделать это), и будет докачивать только те серии, которых у вас ещё нет. Старые серии при этом не удаляются, а продолжают раздаваться!
Eсли вы уже удалили старые серии, то предотвратить повторную закачку старых серий можно, отжав галочку в соответсвующих местах при запуске нового торрента. По возможности, желательно не удалять старые серии как можно дольше, чтобы релизёр не столько продолжал раздавать старые серии, а смог сконцентрироваться на новых.
piratbit.org



Скачать Американская история ужасов через торрент https://i90.fastpic.ru/big/2019/0921/55/ecec001a9ba548a7f8c00c179916cc55.png Скачать фильм Американская история ужасов через торрент бесплантно в хорошем качестве Описание: После призраков, клоунов и ведьм настал черед слэшеров 1980-х, где незадачливых подростков убивает незнакомец с ножом и в маске. ... 10 10 4
Торрент: Зарегистрирован [2019-11-10 17:26] · скачан: 0 раз
Статус: √ проверено
Размер: 19.52 GB
Как cкачать? Как скачать Американская история ужасов через торрент | qTorrent

% Раздел Тема Автор DL S | L
Американская история ужасов [ 10.55 GB ] Американская история ужасов / American Horror Story / Сезон: 9 / Серии: 1-8 из 10 [2019 WEB-DL 720p] [MVO] killermax2013 Скачать
1 | 2
Американская история ужасов [ 20.45 GB ] Американская история ужасов / American Horror Story / Сезон: 9 / Серия: 1-8 из 10 [2019 WEB-DL 1080p] MVO [LostFilm] bober100 Скачать
3 | 1
Американская история ужасов [ 11.57 GB ] Американская история ужасов / American Horror Story / Сезон: 9 / Серии: 1-8 из 10 [2019 WEB-DL 720p] MVO [NewStudio] bober100 Скачать
3 | 1
Американская история ужасов [ 19.27 GB ] Американская история ужасов / American Horror Story / Сезон: 9 / Серии: 1-8 из 10 [2019 WEB-DL 1080p] MVO [Jaskier] bober100 Скачать
1 | 0
Американская история ужасов [ 19.42 GB ] Американская история ужасов / American Horror Story / Сезон: 9 / Серии: 1-8 из 10 [2019 WEB-DL 1080p] MVO [Amedia / Novamedia] bober100 Скачать
3 | 4


>> Регистрируемся здесь <<






Отзывы и комментарии о схеме читаем и пишем здесь: ---> Отзывы и комментарии о схеме

Новые благодарочки в телеграм довольных пользователей:
скриншот   скриншот   скриншот   скриншот   скриншот
    Дорогой пользователь! Огромная просьба, поблагодарите релизера, оцените раздачу и оставьте свои комментарий, если Вы скачали Американская история ужасов через торрент бесплатно! Внесите свою лепту в развитие PiratBit!
    Комментировать посты могут только пользователи прошедшие не сложную регистрацию
    Показать сообщения:    

    Американская история ужасов через торрент
    Скачать бесплатно Американская история ужасов
    Американская история ужасов скачать торрент
    Американская история ужасов смотреть онлайн
    Cкачать фильм Американская история ужасов бесплатно
    Американская история ужасов скачать торрент в хорошем качестве
    Американская история ужасов смотреть онлайн бесплатно в хорошем качестве


    Вы не можете начинать темы
    Вы не можете отвечать на сообщения
    Вы не можете редактировать свои сообщения
    Вы не можете удалять свои сообщения
    Вы не можете голосовать в опросах
    Вы не можете прикреплять файлы к сообщениям
    Вы можете скачивать файлы