новый адрес
Ссылка на приватное зеркало всего за 1$. Внимание количество ограничено!!!

iTunes

1+1

iTunes

мы

WEB-DL

1

iTunes

Чернобыль

iTunes

Ральф против интернета

Лицензия

ПШазам

Лицензия

Оно 2

Лицензия

30
pack

Вам бонус

ВАЖНО

!!Акция!!

Alien_RageХит недели

RePack

Resident Evil 21

ИГРА 18+

pack

RePack

jed

!!Акция!!

Alien_Rage

RePack

fifa19

RePack

Assassins Creed: Odyssey

RePack

NEED FOR SPEED™ PAYBACK

3 сезон

9 сезон

Бесстыжие 9 сезон

Все сериалы

все сериалы на PB.wtf

RePack

FAR CRY 5
Ребята, катастрофически не хватает 1900р. для оплаты серверов за Октябрь (всвязи с блокировками трафик упал в 3 раза), 1-2р., выручайте.
  

Южный парк / South Park / Сезон: 23 / Серии: 1-8 из 10 (Трей Паркер, Мэтт Стоун, Эрик Сточ) [2019, мультфильм, комедия, сатира, WEB-DL 720p] MVO [TVShows] piratbit.org

Южный парк через торрент piratbit.org

Раздают: 1 [ 17 KB/s ] Качают: 1 [ 0 KB/s ]
Размер: 3.16 GB | Добавлен: 2 д. 4 ч. назад | Торрент скачан:2 раза
Скачать  

28-09-2019 18:14 Южный парк Скачать торрент  

✦ Южный Парк ✦
✦ Год выпуска: 2019
✦ Страна: США
✦ Студия: Comedy Central, South Park Studios
✦ Жанр: мультфильм, комедия, сатира
✦ Продолжительность: ~ 00:23:00
✦ Перевод: Профессиональный (многоголосый) | TVShows
✦ Субтитры: Английские

✦ Режиссер: Трей Паркер, Мэтт Стоун, Эрик Сточ

rating

В ролях: Трей Паркер, Мэтт Стоун, Мона Маршалл, Айзек Хейз, Эйприл Стюарт, Элиза Шнайдер, Мэри Кэй Бергман, Эдриан Бирд, Дженнифер Хауэлл, Кайл Маккаллок и др.

Описание: Южный Парк / South Park — американский мультсериал, созданный Мэттом Стоуном и Треем Паркером. Иногда название переводится также как «Саут-Парк» или «Саус-Парк». Выпускается кабельным телеканалом Comedy Central с 1997 года. Основу сюжета составляют приключения четырёх мальчиков и их друзей, живущих в маленьком городке Саут-Парк, штат Колорадо. Сериал высмеивает недостатки американской культуры и текущие мировые события, а также подвергает критике множество глубоких убеждений и табу посредством пародии и чёрного юмора. «Южный Парк» выходит поздно вечером и позиционируется как мультфильм для взрослых.

✦ Качество: WEB-DL 720p
✦ Формат: MKV

✦ Видео: MPEG-4 AVC, ~ 1885 Кбит/с, 1280x720
✦ Аудио#1 RU: AC3, 2 ch, 192 kbps
✦ Аудио#2 EN: E-AC3, 2 ch, 224kbps
скриншот  скриншот  скриншот  скриншот  скриншот  

Общее
Уникальный идентификатор : 271287907090049658245189240218150402764 (0xCC18267F66B022CA1B0B7F7B57067ACC)
Полное имя : D:\South.Park.S23.720p.TVShows\South.Park.S23E01.720p.TVShows.mkv
Формат : Matroska
Версия формата : Version 4 / Version 2
Размер файла : 370 Мбайт
Продолжительность : 22 м. 28 с.
Общий поток : 2303 Кбит/сек
Дата кодирования : UTC 2019-09-28 15:54:11
Программа кодирования : mkvmerge v33.1.0 ('Primrose') 64-bit
Библиотека кодирования : libebml v1.3.7 + libmatroska v1.5.0

Видео
Идентификатор : 1
Формат : AVC
Формат/Информация : Advanced Video Codec
Профиль формата : High@L3.1
Параметр CABAC формата : Да
Параметр RefFrames формата : 4 кадра
Идентификатор кодека : V_MPEG4/ISO/AVC
Продолжительность : 22 м. 28 с.
Вид битрейта : Постоянный
Битрейт : 1841 Кбит/сек
Номинальный битрейт : 6000 Кбит/сек
Ширина : 1280 пикселей
Высота : 720 пикселей
Соотношение сторон : 16:9
Режим частоты кадров : Постоянный
Частота кадров : 23,976 (24000/1001) кадра/сек
Цветовое пространство : YUV
Субдискретизация насыщенности : 4:2:0
Битовая глубина : 8 бит
Тип развёртки : Прогрессивная
Бит/(Пиксели*Кадры) : 0.083
Размер потока : 296 Мбайт (80%)
Default : Да
Forced : Нет
Цветовой диапазон : Limited
Основные цвета : BT.709
Характеристики трансфера : BT.709
Коэффициенты матрицы : BT.709

Аудио #1
Идентификатор : 2
Формат : AC-3
Формат/Информация : Audio Coding 3
Расширение режима : CM (complete main)
Параметр Endianness формата : Big
Идентификатор кодека : A_AC3
Продолжительность : 22 м. 28 с.
Вид битрейта : Постоянный
Битрейт : 192 Кбит/сек
Каналы : 2 канала
Расположение каналов : Front: L R
Частота : 48,0 КГц
Частота кадров : 31,250 кадров/сек (1536 spf)
Метод сжатия : С потерями
Размер потока : 30,9 Мбайт (8%)
Заголовок : TVShows
Язык : Russian
Default : Да
Forced : Да

Аудио #2
Идентификатор : 3
Формат : E-AC-3
Формат/Информация : Audio Coding 3
Параметр Endianness формата : Big
Идентификатор кодека : A_EAC3
Продолжительность : 22 м. 28 с.
Вид битрейта : Постоянный
Битрейт : 224 Кбит/сек
Каналы : 2 канала
Расположение каналов : Front: L R
Частота : 48,0 КГц
Частота кадров : 187,500 кадров/сек (256 spf)
Метод сжатия : С потерями
Размер потока : 36,0 Мбайт (10%)
Заголовок : Original
Язык : English
Default : Нет
Forced : Нет

Текст
Идентификатор : 4
Формат : UTF-8
Идентификатор кодека : S_TEXT/UTF8
Идентификатор кодека/Информация : UTF-8 Plain Text
Заголовок : English
Язык : English
Default : Нет
Forced : Нет

Когда раздача ведётся путём добавления новых серий, при каждом добавлении создётся новый торрент. Чтобы начать докачку новой серии, пользователям необходимо сделать следующее:
(1) остановить скачивание,
(2) удалить старый торрент у себя из клиента (старые серии удалять не надо),
(3) скачать новый торрент и запустить его у себя в клиенте вместо старого, при этом указать клиенту путь в старую папку, куда и должно происходить скачивание новых серий.
Ваш клиент при этом должен произвести хеширование (проверку) старой папки (если не производит сам - помогите ему сделать это), и будет докачивать только те серии, которых у вас ещё нет. Старые серии при этом не удаляются, а продолжают раздаваться!
Eсли вы уже удалили старые серии, то предотвратить повторную закачку старых серий можно, отжав галочку в соответсвующих местах при запуске нового торрента. По возможности, желательно не удалять старые серии как можно дольше, чтобы релизёр не столько продолжал раздавать старые серии, а смог сконцентрироваться на новых.
piratbit.org



Скачать Южный парк через торрент https://i106.fastpic.ru/big/2019/0926/f7/4e9b0b0b57967a3d9fc77c377d7e58f7.jpg Скачать фильм Южный парк через торрент бесплантно в хорошем качестве Описание: Южный Парк / South Park — американский мультсериал, созданный Мэттом Стоуном и Треем Паркером. Иногда название переводится также ... 10 10 4
Торрент: Зарегистрирован [2019-12-04 19:23] · скачан: 2 раз
Статус: √ проверено
Размер: 3.16 GB
Как cкачать? Как скачать Южный парк через торрент | qTorrent

% Раздел Тема Автор DL S | L
Мультсериалы [ 5.75 GB ] Южный парк / South Park / Сезон: 23 / Серии: 1-8 из 10 [2019 мультфильм сатира HDTV 1080p] MVO [Jaskier] bober100 Скачать
4 | 2
Мультсериалы [ 6.07 GB ] Южный парк / South Park / Сезон: 23 / Серии: 1-8 из 10 [2019 мультфильм сатира WEB-DL 1080p] MVO [TVShows] bober100 Скачать
3 | 0
Мультсериалы [ 1.98 GB ] Южный парк / South Park / Сезон: 23 / Серии: 1-8 из 10 [2019 мультфильм сатира HDTVRip] MVO [Jaskier] bober100 Скачать
2 | 2


Последний раз редактировалось: bober100 (2019-12-04 19:22), всего редактировалось 3 раз(а)

28-11-2019 20:33  

Отключить всю рекламу на сайте

02-11-2019 06:42 Южный парк Скачать торрент  

какая озвучка лучше эта или КвК?piratbit.org



    Дорогой пользователь! Огромная просьба, поблагодарите релизера, оцените раздачу и оставьте свои комментарий, если Вы скачали Южный парк через торрент бесплатно! Внесите свою лепту в развитие PiratBit!
    Комментировать посты могут только пользователи прошедшие не сложную регистрацию
    Показать сообщения:    

    Южный парк через торрент
    Скачать бесплатно Южный парк
    Южный парк скачать торрент
    Южный парк смотреть онлайн
    Cкачать фильм Южный парк бесплатно
    Южный парк скачать торрент в хорошем качестве
    Южный парк смотреть онлайн бесплатно в хорошем качестве


    Вы не можете начинать темы
    Вы не можете отвечать на сообщения
    Вы не можете редактировать свои сообщения
    Вы не можете удалять свои сообщения
    Вы не можете голосовать в опросах
    Вы не можете прикреплять файлы к сообщениям
    Вы можете скачивать файлы