Достать ножи: Стеклянная луковица

MVO

Добыча

Дубляж

Уэнсдэй

1 сезон

Тор

Дубляж

13 клиническая

1 сезон

Жестокая ночь

MVO

Одни из нас

1 сезон

Deluxe

pack

Рекомендуем

30

Пиратка

ВАЖНО

ВАЖНО

Ghostwire

Пиратка

jed

RePack

nioh2

RePack

RDR2

RePack

NEED FOR SPEED™ PAYBACK

RePack

скачать торрент

Кинопоиск HD

Острые козырьки 6 сезон

6 сезон

FAR CRY 6

RePack

скачать торрент

Лицензия

скачать торрент

MVO

1

1 сезон

скачать торрент

1 сезон

скачать торрент

Лицензия

  

Гремлины / Gremlins (Джо Данте) [1984, фэнтези, комедия, ужасы, UHD BDRemux 2160p] Дубляж [Лицензия] +5xAVO

Гремлины через торрент piratbit.org

Размер: 51.68 GB | Добавлен: 3 года 4 мес. назад | Торрент скачан:19 раз
Смотреть онлайн | Скачать | Поддержите нас   

29-09-2019 01:47 Гремлины Скачать торрент  

Гремлины / Gremlins
Год выпуска: 1984
Страна: США
Жанр: фэнтези, комедия, ужасы
Продолжительность: 01:46:18
Перевод:

#1: Дублированный | Лицензия
#2: Авторский | Горчаков
#3: Авторский | Гаврилов (ранний)
#4: Авторский | Гаврилов (поздний)
#5: Авторский | Ошурков
#6: Авторский | Дольский
#7: Авторский | Либергал

Субтитры: Русские (Full), английские

Режиссер: Джо Данте

rating

В ролях: Зэк Гэллиган, Фиби Кейтс, Хойт Экстон, Фрэнсис Ли МакКейн, Полли Холлидей, Дик Миллер, Кори Фельдман, Кей Люк, Скотт Брейди, Эдвард Эндрюс и др.

Описание: Очаровательный пушистый зверек Магвай способен растрогать даже камень. Вдобавок, у него — абсолютный слух! Только будьте осторожны: он может погибнуть от солнечного света.

На него нельзя брызгать водой. А что будет, если накормить его после полуночи, просто страшно себе представить…

Качество: UHD BDRemux 2160p
Формат: MKV

Видео: 3840x2160 at 23.976 fps, MPEG-H HEVC HDR Video, 62200 kbps avg
Аудио #01: 48 kHz, AC3, 5.1, 640 Kbps | Лицензия | RUS |
Аудио #02: 48 kHz, AC3, 2.0, 192 Kbps | Горчаков | RUS |
Аудио #03: 48 kHz, AC3, 2.0, 192 Kbps | Гаврилов (ранний)| RUS |
Аудио #04: 48 kHz, DTS, 5.1, 1510 Kbps | Гаврилов (поздний) | RUS |
Аудио #05: 48 kHz, AC3, 2.0, 192 Kbps | Ошурков | RUS |
Аудио #06: 48 kHz, AC3, 2.0, 192 Kbps | Дольский | RUS |
Аудио #07: 48 kHz, AC3, 5.1, 448 Kbps | Либергал | RUS |
Аудио #08: 48 kHz, DTS-HD MA, 5.1, 4127 Kbps | Оригинал | ENG |
скриншот  скриншот  скриншот  скриншот  скриншот  

General
Unique ID : 59688141354304259081813378503276444122 (0x2CE7849383F5199286CC5D75E63F39DA)
Complete name : D:Video111Gremlins.1984.BDREMUX.2160p.HDR.seleZen.mkv
Format : Matroska
Format version : Version 4
File size : 51.7 GiB
Duration : 1 h 46 min
Overall bit rate mode : Variable
Overall bit rate : 69.6 Mb/s
Movie name : Gremlins 1984 4K from селезень
Encoded date : UTC 2019-09-29 00:50:17
Writing application : mkvmerge v37.0.0 ('Leave It') 64-bit
Writing library : libebml v1.3.9 + libmatroska v1.5.2

Video
ID : 1
Format : HEVC
Format/Info : High Efficiency Video Coding
Format profile : Main 10@L5.1@High
HDR format : SMPTE ST 2086, HDR10 compatible
Codec ID : V_MPEGH/ISO/HEVC
Duration : 1 h 46 min
Bit rate : 62.2 Mb/s
Width : 3 840 pixels
Height : 2 160 pixels
Display aspect ratio : 16:9
Frame rate mode : Constant
Frame rate : 23.976 (24000/1001) FPS
Color space : YUV
Chroma subsampling : 4:2:0 (Type 2)
Bit depth : 10 bits
Bits/(Pixel*Frame) : 0.313
Stream size : 46.1 GiB (89%)
Writing library : ATEME Titan File 3.9.0 (4.9.0.0)
Language : English
Default : Yes
Forced : No
Color range : Limited
Color primaries : BT.2020
Transfer characteristics : PQ
Matrix coefficients : BT.2020 non-constant
Mastering display color pri : Display P3
Mastering display luminance : min: 0.0050 cd/m2, max: 4000 cd/m2
Maximum Content Light Level : 1193 cd/m2
Maximum Frame-Average Light : 97 cd/m2

Audio #1
ID : 2
Format : AC-3
Format/Info : Audio Coding 3
Commercial name : Dolby Digital
Codec ID : A_AC3
Duration : 1 h 46 min
Bit rate mode : Constant
Bit rate : 640 kb/s
Channel(s) : 6 channels
Channel layout : L R C LFE Ls Rs
Sampling rate : 48.0 kHz
Frame rate : 31.250 FPS (1536 SPF)
Bit depth : 16 bits
Compression mode : Lossy
Stream size : 486 MiB (1%)
Title : Дубляж [License]
Language : Russian
Service kind : Complete Main
Default : Yes
Forced : Yes

Audio #2
ID : 3
Format : AC-3
Format/Info : Audio Coding 3
Commercial name : Dolby Digital
Codec ID : A_AC3
Duration : 1 h 46 min
Bit rate mode : Constant
Bit rate : 192 kb/s
Channel(s) : 2 channels
Channel layout : L R
Sampling rate : 48.0 kHz
Frame rate : 31.250 FPS (1536 SPF)
Bit depth : 16 bits
Compression mode : Lossy
Stream size : 146 MiB (0%)
Title : AVO [Горчаков]
Language : Russian
Service kind : Complete Main
Default : No
Forced : No

Audio #3
ID : 4
Format : DTS
Format/Info : Digital Theater Systems
Codec ID : A_DTS
Duration : 1 h 46 min
Bit rate mode : Constant
Bit rate : 1 510 kb/s
Channel(s) : 6 channels
Channel layout : C L R Ls Rs LFE
Sampling rate : 48.0 kHz
Frame rate : 93.750 FPS (512 SPF)
Bit depth : 24 bits
Compression mode : Lossy
Stream size : 1.12 GiB (2%)
Title : AVO [Гаврилов, поздний]
Language : Russian
Default : No
Forced : No

Audio #4
ID : 5
Format : AC-3
Format/Info : Audio Coding 3
Commercial name : Dolby Digital
Codec ID : A_AC3
Duration : 1 h 46 min
Bit rate mode : Constant
Bit rate : 192 kb/s
Channel(s) : 2 channels
Channel layout : L R
Sampling rate : 48.0 kHz
Frame rate : 31.250 FPS (1536 SPF)
Bit depth : 16 bits
Compression mode : Lossy
Stream size : 146 MiB (0%)
Title : AVO [Гаврилов, ранний]
Language : Russian
Service kind : Complete Main
Default : No
Forced : No

Audio #5
ID : 6
Format : AC-3
Format/Info : Audio Coding 3
Commercial name : Dolby Digital
Codec ID : A_AC3
Duration : 1 h 46 min
Bit rate mode : Constant
Bit rate : 192 kb/s
Channel(s) : 2 channels
Channel layout : L R
Sampling rate : 48.0 kHz
Frame rate : 31.250 FPS (1536 SPF)
Bit depth : 16 bits
Compression mode : Lossy
Stream size : 146 MiB (0%)
Title : AVO [Ошурков]
Language : Russian
Service kind : Complete Main
Default : No
Forced : No

Audio #6
ID : 7
Format : AC-3
Format/Info : Audio Coding 3
Commercial name : Dolby Digital
Codec ID : A_AC3
Duration : 1 h 46 min
Bit rate mode : Constant
Bit rate : 192 kb/s
Channel(s) : 2 channels
Channel layout : L R
Sampling rate : 48.0 kHz
Frame rate : 31.250 FPS (1536 SPF)
Bit depth : 16 bits
Compression mode : Lossy
Stream size : 146 MiB (0%)
Title : AVO [Дольский]
Language : Russian
Service kind : Complete Main
Default : No
Forced : No

Audio #7
ID : 8
Format : AC-3
Format/Info : Audio Coding 3
Commercial name : Dolby Digital
Codec ID : A_AC3
Duration : 1 h 46 min
Bit rate mode : Constant
Bit rate : 448 kb/s
Channel(s) : 6 channels
Channel layout : L R C LFE Ls Rs
Sampling rate : 48.0 kHz
Frame rate : 31.250 FPS (1536 SPF)
Bit depth : 16 bits
Compression mode : Lossy
Stream size : 341 MiB (1%)
Title : AVO [Либергал]
Language : Russian
Service kind : Complete Main
Default : No
Forced : No

Audio #8
ID : 9
Format : DTS XLL
Format/Info : Digital Theater Systems
Commercial name : DTS-HD Master Audio
Codec ID : A_DTS
Duration : 1 h 46 min
Bit rate mode : Variable
Bit rate : 4 127 kb/s
Channel(s) : 6 channels
Channel layout : C L R Ls Rs LFE
Sampling rate : 48.0 kHz
Frame rate : 93.750 FPS (512 SPF)
Bit depth : 24 bits
Compression mode : Lossless
Stream size : 3.06 GiB (6%)
Title : Original
Language : English
Default : No
Forced : No

Text #1
ID : 10
Format : UTF-8
Codec ID : S_TEXT/UTF8
Codec ID/Info : UTF-8 Plain Text
Duration : 1 h 42 min
Bit rate : 51 b/s
Count of elements : 888
Stream size : 38.7 KiB (0%)
Title : Full
Language : Russian
Default : No
Forced : No

Text #2
ID : 11
Format : UTF-8
Codec ID : S_TEXT/UTF8
Codec ID/Info : UTF-8 Plain Text
Duration : 1 h 42 min
Bit rate : 37 b/s
Count of elements : 918
Stream size : 27.9 KiB (0%)
Title : SDH
Language : English
Default : No
Forced : No

Menu
00:00:00.000 : :Глава 01
00:05:35.126 : :Глава 02
00:08:28.174 : :Глава 03
00:13:22.343 : :Глава 04
00:15:01.150 : :Глава 05
00:19:45.142 : :Глава 06
00:22:47.074 : :Глава 07
00:32:41.209 : :Глава 08
00:37:57.942 : :Глава 09
00:40:57.079 : :Глава 10
00:44:33.420 : :Глава 11
00:51:13.695 : :Глава 12
00:54:11.498 : :Глава 13
00:59:08.211 : :Глава 14
01:01:38.319 : :Глава 15
01:02:47.597 : :Глава 16
01:05:12.491 : :Глава 17
01:07:35.176 : :Глава 18
01:09:57.401 : :Глава 19
01:13:07.883 : :Глава 20
01:18:09.226 : :Глава 21
01:21:03.608 : :Глава 22
01:27:25.114 : :Глава 23
01:33:12.211 : :Глава 24
01:35:06.659 : :Глава 25
01:38:12.136 : :Глава 26
01:42:07.246 : :Глава 27




Скачать Гремлины через торрент https://img15.lostpic.net/2019/09/26/04a2f611b6b96d3891932fd1373e1bca.jpg Скачать, смотреть онлайн Гремлины бесплантно в хорошем качестве Описание: Очаровательный пушистый зверек Магвай способен растрогать даже камень. Вдобавок, у него — абсолютный слух! Только будьте ... 10 10 4
Торрент: Зарегистрирован [2019-09-29 01:47] · скачан: 19 раз
Статус: √ проверено
Размер: 51.68 GB
Как cкачать? Как скачать Гремлины через торрент | UTorrent

28-11-2019 20:33  


Отключить вcю реклaмy на сайте, в т.ч. и в плеере онлайн просмотра!

    Дорогой пользователь! Огромная просьба, поблагодарите релизера, оцените раздачу и оставьте свои комментарий, если Вы скачали Гремлины через торрент бесплатно!!
    Комментировать посты могут только пользователи прошедшие не сложную регистрацию
    Показать сообщения:    


    Гремлины через торрент
    Скачать бесплатно Гремлины
    Гремлины скачать торрент
    Гремлины смотреть онлайн
    Cкачать фильм Гремлины бесплатно
    Гремлины скачать торрент в хорошем качестве
    Гремлины смотреть онлайн бесплатно в хорошем качестве
    Вы не можете начинать темы
    Вы не можете отвечать на сообщения
    Вы не можете редактировать свои сообщения
    Вы не можете удалять свои сообщения
    Вы не можете голосовать в опросах
    Вы не можете прикреплять файлы к сообщениям
    Вы можете скачивать файлы
    Гремлины / Gremlins [1984, фэнтези, комедия, ужасы, UHD BDRemux 2160p] Дубляж [Лицензия] +5xAVO смотреть онлайн, скачать торрент picoco.icu