Достать ножи: Стеклянная луковица

MVO

Добыча

Дубляж

Уэнсдэй

1 сезон

Тор

Дубляж

13 клиническая

1 сезон

Жестокая ночь

MVO

Одни из нас

1 сезон

Deluxe

pack

Рекомендуем

30

Пиратка

ВАЖНО

ВАЖНО

Ghostwire

Пиратка

jed

RePack

nioh2

RePack

RDR2

RePack

NEED FOR SPEED™ PAYBACK

RePack

скачать торрент

Кинопоиск HD

Острые козырьки 6 сезон

6 сезон

FAR CRY 6

RePack

скачать торрент

Лицензия

скачать торрент

MVO

1

1 сезон

скачать торрент

1 сезон

скачать торрент

Лицензия

  

Малефисента / Maleficent (Роберт Стромберг) [2014, Фэнтези, приключения, семейный, UHD BDRip 2160p] Дубляж (rus, ukr) [Лицензия]

Малефисента через торрент piratbit.org

Размер: 16.73 GB | Добавлен: 3 года 4 мес. назад | Торрент скачан:154 раза
Смотреть онлайн | Скачать | Поддержите нас   

29-09-2019 07:30 Малефисента Скачать торрент  

Малефисента / Maleficent
Год выпуска: 2014
Страна: США
Жанр: Фэнтези, приключения, семейный
Продолжительность: 01:37:48
Перевод: Дублированный | Лицензия
Субтитры: Русские (Full), английские

Режиссер: Роберт Стромберг

rating

В ролях: Анджелина Джоли, Элль Фэннинг, Джуно Темпл, Шарлто Копли, Сэм Райли, Ханна Нью, Имелда Стонтон, Элла Пёрнелл, Брентон Туэйтс, Джо Осмонд, Джейми Сивес, Лесли Мэнвилл, Кеннет Крэнэм, Стивен Кри

Описание: Юная волшебница Малефисента вела уединенную жизнь в зачарованном лесу, окруженная сказочными существами, но однажды все изменилось… В её мир вторглись люди, которые принесли с собой разрушение и хаос, и Малефисенте пришлось встать на защиту своих подданных, призвав на помощь могущественные тёмные силы. В пылу борьбы Малефисента наложила страшное заклятие на новорожденную дочь короля, прекрасную Аврору. Но, наблюдая за тем, как растет маленькая принцесса, Малефисента начинает сомневаться в правильности своего поступка — ведь, возможно, именно Аврора может вдохнуть новую жизнь в волшебное лесное царство. Экранизация произведения Элизабет Рудник "Малефисента. История истинной любви".

Качество: UHD BDRip 2160p
Формат: MKV

Видео: HEVC HDR, 16875 Кбит/с, 3840x1600, 10 бит
Аудио#1: 48 kHz, AC3, 5.1, 640 Kbps | Дублированный | RUS |
Аудио#2: 48 kHz, DTS, 5.1, 1510 Kbps | Дублированный | UKR |
Аудио#3: 48 kHz, TrueHD, 7.1, 4824 Kbps | Оригинал | ENG |
Аудио#4: 48 kHz, AC3, 5.1, 640 Kbps | Оригинал | ENG |
скриншот  скриншот  скриншот  скриншот  

скриншот  скриншот  скриншот  скриншот  

General
Complete name : Maleficent.2014.UHD.BDRip.2160p.HDR.x265-KZal.mkv
Format : Matroska
Format version : Version 4
File size : 16.7 GiB
Duration : 1 h 37 min
Overall bit rate mode : Variable
Overall bit rate : 24.5 Mb/s
Movie name : Maleficent (2014) UHD BDRip 2160p HDR x265 -KZ
Encoded date : UTC 2019-09-29 06:46:26
Writing application : mkvmerge v37.0.0 ('Leave It') 64-bit
Writing library : libebml v1.3.9 + libmatroska v1.5.2

Video
ID : 1
Format : HEVC
Format/Info : High Efficiency Video Coding
Format profile : Main 10@L5.1@High
HDR format : SMPTE ST 2086, HDR10 compatible
Codec ID : V_MPEGH/ISO/HEVC
Duration : 1 h 37 min
Bit rate : 16.9 Mb/s
Width : 3 840 pixels
Height : 1 600 pixels
Display aspect ratio : 2.40:1
Frame rate mode : Constant
Frame rate : 23.976 (24000/1001) FPS
Color space : YUV
Chroma subsampling : 4:2:0 (Type 2)
Bit depth : 10 bits
Bits/(Pixel*Frame) : 0.115
Stream size : 11.5 GiB (69%)
Title : Maleficent.2014.UHD.BDRip.2160p.HDR.x265- Beecin
Writing library : x265 3.1+19-c4b098f973e6:[Windows][GCC 9.2.0][64 bit] 10bit
Encoding settings : cpuid=1111039 / frame-threads=5 / numa-pools=16,16,16,16 / wpp / no-pmode / pme / no-psnr / no-ssim / log-level=2 / input-csp=1 / input-res=3840x1600 / interlace=0 / total-frames=140206 / level-idc=51 / high-tier=1 / uhd-bd=0 / ref=4 / no-allow-non-conformance / repeat-headers / annexb / aud / hrd / info / hash=0 / no-temporal-layers / no-open-gop / min-keyint=23 / keyint=240 / gop-lookahead=0 / bframes=10 / b-adapt=2 / b-pyramid / bframe-bias=0 / rc-lookahead=72 / lookahead-slices=4 / scenecut=40 / radl=0 / no-splice / no-intra-refresh / ctu=32 / min-cu-size=8 / rect / amp / max-tu-size=32 / tu-inter-depth=1 / tu-intra-depth=1 / limit-tu=0 / rdoq-level=2 / dynamic-rd=0.00 / no-ssim-rd / signhide / no-tskip / nr-intra=0 / nr-inter=0 / no-constrained-intra / no-strong-intra-smoothing / max-merge=4 / limit-refs=3 / limit-modes / me=3 / subme=7 / merange=57 / temporal-mvp / no-hme / weightp / weightb / no-analyze-src-pics / deblock=-3:-3 / sao / no-sao-non-deblock / rd=4selective-sao=4 / no-early-skip / rskip / no-fast-intra / no-tskip-fast / no-cu-lossless / no-b-intra / no-splitrd-skip / rdpenalty=0 / psy-rd=2.00 / psy-rdoq=1.43 / no-rd-refine / no-lossless / cbqpoffs=0 / crqpoffs=0 / rc=crf / crf=16.5 / qcomp=0.60 / qpstep=3 / stats-write=0 / stats-read=0 / vbv-maxrate=160000 / vbv-bufsize=160000 / vbv-init=0.9 / crf-max=0.0 / crf-min=0.0 / ipratio=1.30 / pbratio=1.20 / aq-mode=3 / aq-strength=1.00 / cutree / zone-count=0 / no-strict-cbr / qg-size=32 / no-rc-grain / qpmax=69 / qpmin=0 / no-const-vbv / sar=1 / overscan=0 / videoformat=5 / range=0 / colorprim=9 / transfer=16 / colormatrix=9 / chromaloc=1 / chromaloc-top=2 / chromaloc-bottom=2 / display-window=0 / master-display=G(13250,34500)B(7500,3000)R(34000,16000)WP(15635,16450)L(40000000,50)cll=823,312 / min-luma=50 / max-luma=4000 / log2-max-poc-lsb=8 / vui-timing-info / vui-hrd-info / slices=1 / no-opt-qp-pps / no-opt-ref-list-length-pps / no-multi-pass-opt-rps / scenecut-bias=0.05 / no-opt-cu-delta-qp / no-aq-motion / hdr / hdr-opt / no-dhdr10-opt / no-idr-recovery-sei / analysis-reuse-level=5 / scale-factor=0 / refine-intra=0 / refine-inter=0 / refine-mv=0 / refine-ctu-distortion=0 / no-limit-sao / ctu-info=0 / no-lowpass-dct / refine-analysis-type=0 / copy-pic=1 / max-ausize-factor=1.0 / no-dynamic-refine / no-single-sei / no-hevc-aq / no-svt / no-field / qp-adaptation-range=1.00
Language : English
Default : Yes
Forced : No
Color range : Limited
Color primaries : BT.2020
Transfer characteristics : PQ
Matrix coefficients : BT.2020 non-constant
Mastering display color primaries : Display P3
Mastering display luminance : min: 0.0050 cd/m2, max: 4000 cd/m2
Maximum Content Light Level : 823 cd/m2
Maximum Frame-Average Light Level : 312 cd/m2

Audio #1
ID : 2
Format : AC-3
Format/Info : Audio Coding 3
Commercial name : Dolby Digital
Codec ID : A_AC3
Duration : 1 h 37 min
Bit rate mode : Constant
Bit rate : 640 kb/s
Channel(s) : 6 channels
Channel layout : L R C LFE Ls Rs
Sampling rate : 48.0 kHz
Frame rate : 31.250 FPS (1536 SPF)
Bit depth : 16 bits
Compression mode : Lossy
Stream size : 446 MiB (3%)
Title : Дубляж BD
Language : Russian
Service kind : Complete Main
Default : Yes
Forced : No

Audio #2
ID : 3
Format : DTS
Format/Info : Digital Theater Systems
Codec ID : A_DTS
Duration : 1 h 37 min
Bit rate mode : Constant
Bit rate : 1 510 kb/s
Channel(s) : 6 channels
Channel layout : C L R Ls Rs LFE
Sampling rate : 48.0 kHz
Frame rate : 93.750 FPS (512 SPF)
Bit depth : 24 bits
Compression mode : Lossy
Stream size : 1.03 GiB (6%)
Title : Дубляж
Language : Ukrainian
Default : No
Forced : No

Audio #3
ID : 4
Format : MLP FBA 16-ch
Format/Info : Meridian Lossless Packing FBA with 16-channel presentation
Commercial name : Dolby TrueHD with Dolby Atmos
Codec ID : A_TRUEHD
Duration : 1 h 37 min
Bit rate mode : Variable
Bit rate : 4 824 kb/s
Maximum bit rate : 7 926 kb/s
Channel(s) : 8 channels
Channel layout : L R C LFE Ls Rs Lb Rb
Sampling rate : 48.0 kHz
Frame rate : 1 200.000 FPS (40 SPF)
Compression mode : Lossless
Stream size : 3.28 GiB (20%)
Language : English
Default : No
Forced : No
Number of dynamic objects : 13
Bed channel count : 1 channel
Bed channel configuration : LFE

Audio #4
ID : 5
Format : AC-3
Format/Info : Audio Coding 3
Commercial name : Dolby Digital
Codec ID : A_AC3
Duration : 1 h 37 min
Bit rate mode : Constant
Bit rate : 640 kb/s
Channel(s) : 6 channels
Channel layout : L R C LFE Ls Rs
Sampling rate : 48.0 kHz
Frame rate : 31.250 FPS (1536 SPF)
Bit depth : 16 bits
Compression mode : Lossy
Stream size : 446 MiB (3%)
Language : English
Service kind : Complete Main
Default : No
Forced : No

Text #1
ID : 6
Format : UTF-8
Codec ID : S_TEXT/UTF8
Codec ID/Info : UTF-8 Plain Text
Duration : 1 h 28 min
Bit rate : 48 b/s
Count of elements : 736
Stream size : 31.6 KiB (0%)
Title : Full
Language : Russian
Default : Yes
Forced : No

Text #2
ID : 7
Format : UTF-8
Codec ID : S_TEXT/UTF8
Codec ID/Info : UTF-8 Plain Text
Duration : 1 h 30 min
Bit rate : 37 b/s
Count of elements : 1038
Stream size : 24.7 KiB (0%)
Title : SDH
Language : English
Default : No
Forced : No

Menu
00:00:00.000 : :Chapter 01
00:03:00.596 : :Chapter 02
00:08:10.950 : :Chapter 03
00:14:00.757 : :Chapter 04
00:19:10.609 : :Chapter 05
00:25:59.057 : :Chapter 06
00:33:09.738 : :Chapter 07
00:38:30.808 : :Chapter 08
00:43:21.140 : :Chapter 09
00:46:56.104 : :Chapter 10
00:51:11.944 : :Chapter 11
00:54:18.799 : :Chapter 12
00:58:37.723 : :Chapter 13
01:01:58.048 : :Chapter 14
01:05:09.989 : :Chapter 15
01:09:56.776 : :Chapter 16
01:15:40.619 : :Chapter 17
01:17:43.659 : :Chapter 18
01:25:44.932 : :Chapter 19
01:28:38.648 : :Chapter 20




Скачать Малефисента через торрент https://img16.lostpic.net/2019/09/25/6527ee781fb12d1ed868b2b1cf4a827e.jpg Скачать, смотреть онлайн Малефисента бесплантно в хорошем качестве Описание: Юная волшебница Малефисента вела уединенную жизнь в зачарованном лесу, окруженная сказочными существами, но однажды все ... 10 10 5
Торрент: Зарегистрирован [2019-09-29 07:30] · скачан: 154 раз
Статус: √ проверено
Размер: 16.73 GB
Как cкачать? Как скачать Малефисента через торрент | UTorrent

% Раздел Тема Автор DL S | L
Фильмы 2014 [DVDrip, WEB-DLRip, HDrip] [ 1.45 GB ] Малефисента / Maleficent | iTunes | HDRip, Дубляж White Smoke Скачать
1 | 0
3D Фильмы [ 5.45 GB ] Малефисента 3D/ Maleficent 3D | Дубляж | 1080p, Дубляж slaventi-69 Скачать
1 | 2
Фильмы 2014 [DVDrip, WEB-DLRip, HDrip] [ 1.46 GB ] Малефисента / Maleficent | Лицензия | BDRip Twi7ter Скачать
11 | 0
Ultra HD (UHD: 2K, 4K, 8K) [ 49.79 GB ] Малефисента / Maleficent | Лицензия | 2160p bober100 Скачать
1 | 1
3D Фильмы [ 12.7 GB ] Малефисента / Maleficent | Лицензия | 1080p 3D Ворон Скачать
1 | 0
Фильмы (HD 720p, 1080p) (48-60 fps) [ 7.94 GB ] Малефисента / Maleficent | Дубляж | 1080p / 60 FPS Tiberiumsun69 Скачать
1 | 0
3D Фильмы [ 6.33 GB ] Малефисента / Maleficent | Лицензия | 1080p, Дубляж, Лицензия slaventi-69 Скачать
1 | 0

28-11-2019 20:33  


Отключить вcю реклaмy на сайте, в т.ч. и в плеере онлайн просмотра!

    Дорогой пользователь! Огромная просьба, поблагодарите релизера, оцените раздачу и оставьте свои комментарий, если Вы скачали Малефисента через торрент бесплатно!!
    Комментировать посты могут только пользователи прошедшие не сложную регистрацию
    Показать сообщения:    


    Малефисента через торрент
    Скачать бесплатно Малефисента
    Малефисента скачать торрент
    Малефисента смотреть онлайн
    Cкачать фильм Малефисента бесплатно
    Малефисента скачать торрент в хорошем качестве
    Малефисента смотреть онлайн бесплатно в хорошем качестве
    Вы не можете начинать темы
    Вы не можете отвечать на сообщения
    Вы не можете редактировать свои сообщения
    Вы не можете удалять свои сообщения
    Вы не можете голосовать в опросах
    Вы не можете прикреплять файлы к сообщениям
    Вы можете скачивать файлы
    Малефисента / Maleficent [2014, Фэнтези, приключения, семейный, UHD BDRip 2160p] Дубляж [Лицензия] смотреть онлайн, скачать торрент picoco.icu