1 сезон

3 сезон

iTunes

1

iTunes

DUB Netflix

iTunes

13

1 сезон

RePack

30

Deluxe

pack

Легкие деньги

ВАЖНО

ИГРА 18+

pack

RePack

MK11

RePack

jed

RePack

fifa19

RePack

RDR2

RePack

NEED FOR SPEED™ PAYBACK

4 сезон

9 сезон

Бесстыжие 9 сезон

Все сериалы

все сериалы на PB.wtf

RePack

FAR CRY 5

Anonymous, доброй ночи, мы не успеваем до 1 числа собрать деньги на оплату серверов, помогите нам пожалуйста в это трудное время. В качестве благодарности мы отключим Вам всю рекламу на сайте (укажите свой ник в строку Ваше имя)!

×
  
Magnet ссылка

Триада / Сезон: 1 / Серии: 1-16 из 16 (Дмитрий Дьяченко) [2019, Комедия, WEB-DL 1080p] piratbit.org

Триада через торрент piratbit.org

Раздают: 1 [ 0 KB/s ]
Размер: 12.9 GB | Добавлен: 1 год 7 мес. назад | Торрент скачан:65 раз
Скачать  

30-09-2019 17:30 Триада Скачать торрент  

Триада
Год выпуска: 2019
Страна: Россия
Жанр: Комедия
Продолжительность: ~ 00:25:00 (Серия)
Перевод: Не требуется
Субтитры: отсутствуют

Режиссер: Дмитрий Дьяченко



В ролях: Борис Дергачёв, Дарья Мороз, Любовь Аксёнова, Анастасия Калашникова, Александр Пташенчук, Инга Оболдина, Кирилл Полухин, Тимофей Трибунцев, Владислав Ветров, Елена Шевченко

Описание: Толя никак не может выбрать между любовницей и женой, с которой у них много лет не получается родить ребенка. Лучший друг советует ему переспать с танцовщицей в клубе и понять, перед какой из любящих женщин ему будет стыдно. Толя решает последовать совету… и через несколько недель все три женщины сообщают Толе, что у него будет ребенок… Ну то есть три ребенка… Одновременно! Вместо того чтобы провалиться сквозь землю, Толя принимает ответственное, но очень спорное решение. Несмотря ни на что он хочет остаться любящим отцом для каждого из троих детей. Поэтому Толя собирает всю триаду и объявляет, что все три матери должны непременно жить вместе с ним под одной крышей.

Качество: WEB-DL 1080p
Формат: MKV

Видео: MPEG4 AVC Video, H264, 16:9, 1920x1080, 25 fps, ~5000 kbps, 0.096 bit/pixel
Аудио: AC3 Dolby Digital, 48.0 kHz, 2/0 (L,R) ch, 192 kbps
скриншот  скриншот  скриншот  скриншот  скриншот  

General
Unique ID : 187045147535432189489305474304008293548 (0x8CB795C66E963BB48D742AC034908CAC)
Complete name : D:\Triada.2019.WEB-DL.(1080p).Getty\Triada.e01.2019.WEB-DL.(1080p).Getty.mkv
Format : Matroska
Format version : Version 4 / Version 2
File size : 1 022 MiB
Duration : 27 min 58 s
Overall bit rate mode : Constant
Overall bit rate : 5 107 kb/s
Movie name : Triada.e01.2019.WEB-DL.(1080p).Getty
Encoded date : UTC 2019-09-30 16:56:47
Writing application : mkvmerge v7.8.0 ('River Man') 32bit built on Mar 27 2015 16:18:02
Writing library : libebml v1.3.1 + libmatroska v1.4.2

Video
ID : 1
Format : AVC
Format/Info : Advanced Video Codec
Format profile : Baseline@L4
Format settings : 4 Ref Frames
Format settings, CABAC : No
Format settings, ReFrames : 4 frames
Codec ID : V_MPEG4/ISO/AVC
Duration : 27 min 58 s
Bit rate mode : Constant
Bit rate : 5 000 kb/s
Width : 1 920 pixels
Height : 1 080 pixels
Display aspect ratio : 16:9
Frame rate mode : Constant
Frame rate : 25.000 FPS
Standard : PAL
Color space : YUV
Chroma subsampling : 4:2:0
Bit depth : 8 bits
Scan type : Progressive
Bits/(Pixel*Frame) : 0.096
Stream size : 983 MiB (96%)
Default : Yes
Forced : No
Color range : Limited
Color primaries : BT.709
Transfer characteristics : BT.709
Matrix coefficients : BT.709

Audio
ID : 2
Format : AC-3
Format/Info : Audio Coding 3
Codec ID : A_AC3
Duration : 27 min 58 s
Bit rate mode : Constant
Bit rate : 192 kb/s
Channel(s) : 2 channels
Channel positions : Front: L R
Sampling rate : 48.0 kHz
Frame rate : 31.250 FPS (1536 SPF)
Bit depth : 16 bits
Compression mode : Lossy
Stream size : 38.4 MiB (4%)
Service kind : Complete Main
Default : Yes
Forced : No

При каждом добавлении создаётся новый торрент. Чтобы начать докачку новой серии, пользователям необходимо сделать следующее:
- остановить скачивание;
- удалить старый торрент у себя из клиента (старые серии удалять не надо);
- скачать новый торрент и запустить его у себя в клиенте вместо старого, при этом указать клиенту путь в старую папку, куда и должно происходить скачивание новых серий.
piratbit.org



Скачать Триада через торрент https://img15.lostpic.net/2019/09/30/a709a8d8bb92ee0f30ba513688b87526.th.jpg Скачать фильм Триада через торрент бесплантно в хорошем качестве Описание: Толя никак не может выбрать между любовницей и женой, с которой у них много лет не получается родить ребенка. Лучший друг ... 9.4 10 15
Торрент: Зарегистрирован [2019-10-22 18:37] · скачан: 65 раз
Статус: √ проверено
Размер: 12.9 GB
Как cкачать? Как скачать Триада через торрент | UTorrent

% Раздел Тема Автор DL S | L
TNT serials [ 2.55 GB ] Триада / Сезон: 2 / Серии: 1-8 из 16 [2021 SATRip] bober100 Скачать
10 | 8
TNT serials [ 1.83 GB ] Триада / Сезон: 2 / Серии: 1-6 из 16 [2021 WEBRip-AVC] bober100 Скачать
1 | 1
TNT serials [ 2.05 GB ] Триада / Сезон: 2 / Серии: 1-6 из 16 [2021 WEBRip] bober100 Скачать
2 | 0
TNT serials [ 4.73 GB ] Триада / Сезон: 2 / Серии: 1-6 из 16 [2021 WEBRip 1080p] bober100 Скачать
2 | 1
TNT serials [ 3.22 GB ] Триада / Сезон: 2 / Серии: 1-6 из 16 [2021 WEBRip 720p] bober100 Скачать
2 | 0
TNT serials [ 6 GB ] Триада / Сезон: 1 / Серии: 1-16 из 16 [2019 HDTVRip-AVC] bober100 Скачать
2 | 0
TNT serials [ 4.93 GB ] Триада / Сезон: 1 / Серии: 1-16 из 16 [2019 HDTVRip] bober100 Скачать
4 | 0

28-11-2019 20:33  

Отключить всю рекламу на сайте


    Дорогой пользователь! Огромная просьба, поблагодарите релизера, оцените раздачу и оставьте свои комментарий, если Вы скачали Триада через торрент бесплатно! Внесите свою лепту в развитие PiratBit!
    Комментировать посты могут только пользователи прошедшие не сложную регистрацию
    Показать сообщения:    

    Триада через торрент
    Скачать бесплатно Триада
    Триада скачать торрент
    Триада смотреть онлайн
    Cкачать фильм Триада бесплатно
    Триада скачать торрент в хорошем качестве
    Триада смотреть онлайн бесплатно в хорошем качестве


    Вы не можете начинать темы
    Вы не можете отвечать на сообщения
    Вы не можете редактировать свои сообщения
    Вы не можете удалять свои сообщения
    Вы не можете голосовать в опросах
    Вы не можете прикреплять файлы к сообщениям
    Вы можете скачивать файлы