Достать ножи: Стеклянная луковица

MVO

Добыча

Дубляж

Уэнсдэй

1 сезон

Тор

Дубляж

13 клиническая

1 сезон

Жестокая ночь

MVO

Одни из нас

1 сезон

Deluxe

pack

Рекомендуем

30

Пиратка

ВАЖНО

ВАЖНО

Ghostwire

Пиратка

jed

RePack

nioh2

RePack

RDR2

RePack

NEED FOR SPEED™ PAYBACK

RePack

скачать торрент

Кинопоиск HD

Острые козырьки 6 сезон

6 сезон

FAR CRY 6

RePack

скачать торрент

Лицензия

скачать торрент

MVO

1

1 сезон

скачать торрент

1 сезон

скачать торрент

Лицензия

  

Аннигиляция / Annihilation (Алекс Гарленд) [2018, Фантастика, ужасы, триллер, драма, детектив, UHD BDRemux 2160p] [Dolby Vision TV] Дубляж + 2xMVO + 2xAVO

Аннигиляция через торрент piratbit.org

Размер: 46.73 GB | Добавлен: 3 года 4 мес. назад | Торрент скачан:47 раз
Смотреть онлайн | Скачать | Поддержите нас   

30-09-2019 18:01 Аннигиляция Скачать торрент  

Аннигиляция / Annihilation

Год выпуска: 2017
Страна: Великобритания, США
Жанр: Фантастика, фэнтези, ужасы, триллер, драма, детектив, приключения
Продолжительность: 01:55:00
Перевод: Дублированный, профессиональный многоголосый, авторский
Субтитры: Отдельно Русские (форсированные, полные), украинские (форсированные, полные), английские (полные, SDH)
Режиссер: Алекс Гарленд
В ролях:

Натали Портман (Lena), Бенедикт Вонг (Lomax), Соноя Мидзуно (Katie (Med Student)), Дэвид Гяси (Daniel), Оскар Айзек (Kane), Джон Шваб (Paramedic), Дженнифер Джейсон Ли (Dr. Ventress), Джина Родригез (Anya Thorensen), Тува Новотны (Cass Sheppard), Тесса Томпсон (Josie Radek), Сэмми Хейман (Mayer), Джош Дэнфорд (Shelley)
Описание:
Профессор биологии Лина уже год страдает от потери мужа-военного. Кейн отправился на очередное секретное задание, но так и не вернулся — жив ли, погиб — женщина не знает, пока однажды дезориентированный и слегка бледный супруг внезапно не появляется на пороге их спальни. Радость длится недолго — у мужчины начинаются судороги и множественные кровотечения, а по дороге в больницу машину скорой помощи тормозят военные. Лина приходит в себя на секретной базе рядом с той самой загадочной зоной, куда уже отправлялись многочисленные экспедиции, но вернулся, оказывается, только один человек — её Кейн.
Рейтинг:

Качество: UHD BDRemux 2160p | Dolby Vision TV
Формат: MP4
Видео: MPEG-H HEVC Video 44915 kbps 2160p / 23.976 fps / 16:9 / Main 10 Profile 5.1 High / 4:2:0 / 10 bits / HDR / BT.2020 /
* MPEG-H HEVC Video 5068 kbps 1080p / 23.976 fps / 16:9 / Main 10 Profile 5.1 High / 4:2:0 / 10 bits / Dolby Vision / BT.2020 /

Аудио №1: Русский: 48 kHz, AC3, 3/2 (L,C,R,l,r) + LFE ch, ~384 kbps avg |Дубляж, iTunes|
Аудио №2: Русский: 48 kHz/24-bit, DTS-HD MA 7.1 , ~4612 kbps avg |Многоголосый закадровый, Jaskier|
Аудио №3: Русский: 48 kHz/24-bit, DTS-HD MA 7.1 , ~4643 kbps avg |Многоголосый закадровый, NewStudio|
Аудио №4: Русский: 48 kHz/24-bit, DTS-HD MA 7.1 , ~3868 kbps avg |Одноголосый закадровый, Яроцкий|
Аудио №5: Русский: 48 kHz, AC3, 3/2 (L,C,R,l,r) + LFE ch, ~448 kbps avg |Одноголосый закадровый, Назаров|
Аудио №6: Украинский: 48 kHz/24-bit, DTS-HD MA 7.1 , ~4607 kbps avg |Многоголосый закадровый, НеЗупиняйПродакшн|
Аудио №7: Английский: 48 kHz/24-bit, Atmos TrueHD 7.1, ~4062 kbps avg
Аудио №8: Английский: 48 kHz, AC3, 3/2 (L,C,R,l,r) + LFE ch, ~640 kbps avg

Данный вид релизов (контейнер MP4) предназначен для встроенного в ТВ (соответственно, с поддержкой DV) плеер.
Т.Е. Можно использовать как USB flash/HDD, так и DLNA / Plex - подобные сервисы/программы. дополнительный-внешний плеер не обязателен.

Внимание!
На моделях LG 2016 возможны сюрпризы "через раз", 2017-2018 должно идти без сюрпризов )
Внимание! Присутствует ненормативная лексика
General
Complete name : Annihilation.2018.UHD.BDRemux.2160p.DV.IVA(5xRUS.UKR.ENG).ExKinoRay.mp4
Format : MPEG-4
Format profile : Base Media / Version 2
Codec ID : mp42 (mp42/isom/hev1/dby1)
File size : 46.7 GiB
Duration : 1 h 55 min
Overall bit rate : 58.1 Mb/s
Movie name : Annihilation
Performer : Alex Garland
Performer/Sorted by : Alex Garland
Genre : Science Fiction & Horror
Description : A biologist signs up for a dangerous, secret expedition into a mysterious zone where the laws of nature don't apply.
Encoded date : UTC 2019-09-30 15:53:01
Tagged date : UTC 2019-09-30 16:08:29
Writing application : IVA.ExKinoRay
Cover : Yes
Title/Sort : Annihilation
LongDescription : A biologist signs up for a dangerous, secret expedition into a mysterious zone where the laws of nature don't apply.

Video #1
ID : 1
Format : HEVC
Format/Info : High Efficiency Video Coding
Format profile : Main 10@L5.1@High
HDR format : SMPTE ST 2086, HDR10 compatible
Codec ID : hev1
Codec ID/Info : High Efficiency Video Coding
Duration : 1 h 55 min
Source duration : 1 h 55 min
Bit rate : 44.9 Mb/s
Width : 3 840 pixels
Height : 2 160 pixels
Display aspect ratio : 16:9
Frame rate mode : Constant
Frame rate : 23.976 (24000/1001) FPS
Color space : YUV
Chroma subsampling : 4:2:0 (Type 2)
Bit depth : 10 bits
Bits/(Pixel*Frame) : 0.226
Stream size : 36.1 GiB (77%)
Source stream size : 36.1 GiB (77%)
Encoded date : UTC 2019-09-30 15:53:01
Tagged date : UTC 2019-09-30 16:08:17
Color range : Limited
Color primaries : BT.2020
Transfer characteristics : PQ
Matrix coefficients : BT.2020 non-constant
Mastering display color primaries : Display P3
Mastering display luminance : min: 0.0001 cd/m2, max: 1000 cd/m2
Codec configuration box : hvcC

Video #2
ID : 2
Format : HEVC
Format/Info : High Efficiency Video Coding
Format profile : Main 10@L5.1@High
HDR format : Dolby Vision, Version 1.0, dvhe.07.06, EL+RPU / SMPTE ST 2086, HDR10 compatible
Codec ID : dvhe
Codec ID/Info : High Efficiency Video Coding with Dolby Vision
Duration : 1 h 55 min
Source duration : 1 h 55 min
Bit rate : 5 068 kb/s
Width : 1 920 pixels
Height : 1 080 pixels
Display aspect ratio : 16:9
Frame rate mode : Constant
Frame rate : 23.976 (24000/1001) FPS
Color space : YUV
Chroma subsampling : 4:2:0 (Type 2)
Bit depth : 10 bits
Bits/(Pixel*Frame) : 0.102
Stream size : 4.07 GiB (9%)
Source stream size : 4.07 GiB (9%)
Encoded date : UTC 2019-09-30 15:53:01
Tagged date : UTC 2019-09-30 16:08:17
Color range : Limited
Color primaries : BT.2020
Transfer characteristics : PQ
Matrix coefficients : BT.2020 non-constant
Mastering display color primaries : Display P3
Mastering display luminance : min: 0.0001 cd/m2, max: 1000 cd/m2
Codec configuration box : hvcC+dvcC

Audio #1
ID : 3
Format : AC-3
Format/Info : Audio Coding 3
Commercial name : Dolby Digital
Codec ID : ac-3
Duration : 1 h 55 min
Bit rate mode : Constant
Bit rate : 384 kb/s
Channel(s) : 6 channels
Channel layout : L R C LFE Ls Rs
Sampling rate : 48.0 kHz
Frame rate : 31.250 FPS (1536 SPF)
Compression mode : Lossy
Stream size : 316 MiB (1%)
Title : Russian (ac3 5.1)
Language : Russian
Service kind : Complete Main
Default : Yes
Alternate group : 1
Encoded date : UTC 2019-09-30 15:53:01
Tagged date : UTC 2019-09-30 16:08:17

Audio #2
ID : 4
Format : DTS
Format/Info : Digital Theater Systems
Codec ID : dtsc
Codec ID/Info : Digital Theater Systems
Duration : 1 h 55 min
Bit rate mode : Constant
Bit rate : 1 509 kb/s
Stream size : 1.21 GiB (3%)
Title : Russian (dts 5.1)
Language : Russian
Default : No
Alternate group : 1
Encoded date : UTC 2019-09-30 15:53:01
Tagged date : UTC 2019-09-30 16:08:17

Audio #3
ID : 5
Format : DTS
Format/Info : Digital Theater Systems
Codec ID : dtsc
Codec ID/Info : Digital Theater Systems
Duration : 1 h 55 min
Bit rate mode : Constant
Bit rate : 1 509 kb/s
Stream size : 1.21 GiB (3%)
Title : Russian (dts 5.1)
Language : Russian
Default : No
Alternate group : 1
Encoded date : UTC 2019-09-30 15:53:01
Tagged date : UTC 2019-09-30 16:08:17

Audio #4
ID : 6
Format : DTS
Format/Info : Digital Theater Systems
Codec ID : dtsc
Codec ID/Info : Digital Theater Systems
Duration : 1 h 55 min
Bit rate mode : Constant
Bit rate : 1 509 kb/s
Stream size : 1.21 GiB (3%)
Title : Russian (dts 5.1)
Language : Russian
Default : No
Alternate group : 1
Encoded date : UTC 2019-09-30 15:53:01
Tagged date : UTC 2019-09-30 16:08:17

Audio #5
ID : 7
Format : AC-3
Format/Info : Audio Coding 3
Commercial name : Dolby Digital
Codec ID : ac-3
Duration : 1 h 54 min
Bit rate mode : Constant
Bit rate : 448 kb/s
Channel(s) : 6 channels
Channel layout : L R C LFE Ls Rs
Sampling rate : 48.0 kHz
Frame rate : 31.250 FPS (1536 SPF)
Compression mode : Lossy
Stream size : 368 MiB (1%)
Title : Russian (ac3 5.1)
Language : Russian
Service kind : Complete Main
Default : No
Alternate group : 1
Encoded date : UTC 2019-09-30 15:53:01
Tagged date : UTC 2019-09-30 16:08:17

Audio #6
ID : 8
Format : DTS
Format/Info : Digital Theater Systems
Codec ID : dtsc
Codec ID/Info : Digital Theater Systems
Duration : 1 h 55 min
Bit rate mode : Constant
Bit rate : 1 509 kb/s
Stream size : 1.21 GiB (3%)
Title : Ukrainian (dts 5.1)
Language : Ukrainian
Default : No
Alternate group : 1
Encoded date : UTC 2019-09-30 15:53:01
Tagged date : UTC 2019-09-30 16:08:17

Audio #7
ID : 9
Format : AC-3
Format/Info : Audio Coding 3
Commercial name : Dolby Digital
Codec ID : ac-3
Duration : 1 h 55 min
Bit rate mode : Constant
Bit rate : 640 kb/s
Channel(s) : 6 channels
Channel layout : L R C LFE Ls Rs
Sampling rate : 48.0 kHz
Frame rate : 31.250 FPS (1536 SPF)
Compression mode : Lossy
Stream size : 526 MiB (1%)
Title : English (ac3 5.1)
Language : English
Service kind : Complete Main
Default : No
Alternate group : 1
Encoded date : UTC 2019-09-30 15:53:01
Tagged date : UTC 2019-09-30 16:08:17

Audio #8
ID : 10
Format : AC-3
Format/Info : Audio Coding 3
Commercial name : Dolby Digital
Codec ID : ac-3
Duration : 1 h 55 min
Bit rate mode : Constant
Bit rate : 640 kb/s
Channel(s) : 6 channels
Channel layout : L R C LFE Ls Rs
Sampling rate : 48.0 kHz
Frame rate : 31.250 FPS (1536 SPF)
Compression mode : Lossy
Stream size : 526 MiB (1%)
Title : English (ac3 5.1)
Language : English
Service kind : Complete Main
Default : No
Alternate group : 1
Encoded date : UTC 2019-09-30 15:53:01
Tagged date : UTC 2019-09-30 16:08:17



Скачать Аннигиляция через торрент https://a.radikal.ru/a10/1909/1b/0aef22c534f2.png Скачать, смотреть онлайн Аннигиляция бесплантно в хорошем качестве Описание: Профессор биологии Лина уже год страдает от потери мужа-военного. Кейн отправился на очередное секретное задание, но так и не ... 10 10 4
Info! Золотая раздача, скачанное не засчитывается.
Торрент: Зарегистрирован [2019-09-30 18:01] · скачан: 47 раз
Статус: √ проверено
Размер: 46.73 GB
Как cкачать? Как скачать Аннигиляция через торрент | UTorrent

28-11-2019 20:33  


Отключить вcю реклaмy на сайте, в т.ч. и в плеере онлайн просмотра!

    Дорогой пользователь! Огромная просьба, поблагодарите релизера, оцените раздачу и оставьте свои комментарий, если Вы скачали Аннигиляция через торрент бесплатно!!
    Комментировать посты могут только пользователи прошедшие не сложную регистрацию
    Показать сообщения:    


    Аннигиляция через торрент
    Скачать бесплатно Аннигиляция
    Аннигиляция скачать торрент
    Аннигиляция смотреть онлайн
    Cкачать фильм Аннигиляция бесплатно
    Аннигиляция скачать торрент в хорошем качестве
    Аннигиляция смотреть онлайн бесплатно в хорошем качестве
    Вы не можете начинать темы
    Вы не можете отвечать на сообщения
    Вы не можете редактировать свои сообщения
    Вы не можете удалять свои сообщения
    Вы не можете голосовать в опросах
    Вы не можете прикреплять файлы к сообщениям
    Вы можете скачивать файлы
    Аннигиляция / Annihilation [2018, Фантастика, ужасы, триллер, драма, детектив, UHD BDRemux 2160p] [Dolby Vision TV] Дубляж + 2xMVO + 2xAVO смотреть онлайн, скачать торрент picoco.icu