1 сезон

3 сезон

iTunes

1

iTunes

DUB Netflix

iTunes

13

1 сезон

RePack

30

Deluxe

pack

Легкие деньги

ВАЖНО

ИГРА 18+

pack

RePack

MK11

RePack

jed

RePack

fifa19

RePack

RDR2

RePack

NEED FOR SPEED™ PAYBACK

4 сезон

9 сезон

Бесстыжие 9 сезон

Все сериалы

все сериалы на PB.wtf

RePack

FAR CRY 5

Anonymous, доброй ночи, мы не успеваем до 1 числа собрать деньги на оплату серверов, помогите нам пожалуйста в это трудное время. В качестве благодарности мы отключим Вам всю рекламу на сайте (укажите свой ник в строку Ваше имя)!

×
  
Magnet ссылка

Триада / Сезон: 1 / Серии: 1-16 из 16 (Дмитрий Дьяченко) [2019, Комедия, HDTV 1080i] piratbit.org

Триада через торрент piratbit.org

Размер: 16.43 GB | Добавлен: 1 год 7 мес. назад | Торрент скачан:131 раз
Скачать  

30-09-2019 18:09 Триада Скачать торрент  

Триада
Год выпуска: 2019
Страна: Россия
Жанр: Комедия
Продолжительность: ~ 00:25:00 (Серия)
Перевод: Не требуется
Субтитры: отсутствуют

Режиссер: Дмитрий Дьяченко



В ролях: Борис Дергачёв, Дарья Мороз, Любовь Аксёнова, Анастасия Калашникова, Александр Пташенчук, Инга Оболдина, Кирилл Полухин, Тимофей Трибунцев, Владислав Ветров, Елена Шевченко

Описание: Толя никак не может выбрать между любовницей и женой, с которой у них много лет не получается родить ребенка. Лучший друг советует ему переспать с танцовщицей в клубе и понять, перед какой из любящих женщин ему будет стыдно. Толя решает последовать совету… и через несколько недель все три женщины сообщают Толе, что у него будет ребенок… Ну то есть три ребенка… Одновременно! Вместо того чтобы провалиться сквозь землю, Толя принимает ответственное, но очень спорное решение. Несмотря ни на что он хочет остаться любящим отцом для каждого из троих детей. Поэтому Толя собирает всю триаду и объявляет, что все три матери должны непременно жить вместе с ним под одной крышей.

Качество: HDTV 1080i
Формат: TS

Видео: MPEG-4 AVC, ~ 5700 Кбит/с, 1920x1080, 25 кадр/с
Аудио: MP2, 2 ch, 192 Кбит/с
скриншот  скриншот  скриншот  скриншот  

Общее
Идентификатор : 1 (0x1)
Полное имя : G:Triada.2019.HDTV.(1080i).ExKinoRayTriada.(01.seriya).2019.HDTV.(1080i).ExKinoRay.ts
Формат : MPEG-TS
Размер файла : 1,18 Гбайт
Продолжительность : 27 м. 21 с.
Режим общего битрейта : Переменный
Общий поток : 6194 Кбит/сек

Видео
Идентификатор : 211 (0xD3)
Идентификатор меню : 2207 (0x89F)
Формат : AVC
Формат/Информация : Advanced Video Codec
Профиль формата : High@L4
Настройки формата : CABAC / 4 Ref Frames
Параметр CABAC формата : Да
Параметр RefFrames формата : 4 кадра
Идентификатор кодека : 27
Продолжительность : 27 м. 20 с.
Битрейт : 5694 Кбит/сек
Ширина : 1920 пикселей
Высота : 1080 пикселей
Соотношение сторон : 16:9
Частота кадров : 25,000 кадров/сек
Стандарт вещания : Component
Цветовое пространство : YUV
Субдискретизация насыщенности : 4:2:0
Битовая глубина : 8 бит
Тип развёртки : Чересстрочная
Метод сохранения типа развёртки : Раздельные поля
Порядок развёртки : Верхнее поле первое
Бит/(Пиксели*Кадры) : 0.110
Размер потока : 1,09 Гбайт (92%)
Цветовой диапазон : Limited
Основные цвета : BT.709
Характеристики трансфера : BT.709
Коэффициенты матрицы : BT.709

Аудио
Идентификатор : 221 (0xDD)
Идентификатор меню : 2207 (0x89F)
Формат : MPEG Audio
Версия формата : Version 1
Профиль формата : Layer 2
Идентификатор кодека : 3
Продолжительность : 27 м. 21 с.
Вид битрейта : Постоянный
Битрейт : 192 Кбит/сек
Каналы : 2 канала
Частота : 48,0 КГц
Частота кадров : 41,667 кадра/сек (1152 SPF)
Метод сжатия : С потерями
Задержка видео : -80 мс.
Размер потока : 37,6 Мбайт (3%)
Язык : Russian

При каждом добавлении создаётся новый торрент. Чтобы начать докачку новой серии, пользователям необходимо сделать следующее:
- остановить скачивание;
- удалить старый торрент у себя из клиента (старые серии удалять не надо);
- скачать новый торрент и запустить его у себя в клиенте вместо старого, при этом указать клиенту путь в старую папку, куда и должно происходить скачивание новых серий.
piratbit.org



Скачать Триада через торрент https://img15.lostpic.net/2019/09/30/a709a8d8bb92ee0f30ba513688b87526.th.jpg Скачать фильм Триада через торрент бесплантно в хорошем качестве Описание: Толя никак не может выбрать между любовницей и женой, с которой у них много лет не получается родить ребенка. Лучший друг ... 10 10 15
Info! Золотая раздача, скачанное не засчитывается.
Торрент: Зарегистрирован [2019-10-22 18:22] · скачан: 131 раз
Статус: √ проверено
Размер: 16.43 GB
Как cкачать? Как скачать Триада через торрент | UTorrent

% Раздел Тема Автор DL S | L
TNT serials [ 2.55 GB ] Триада / Сезон: 2 / Серии: 1-8 из 16 [2021 SATRip] bober100 Скачать
9 | 5
TNT serials [ 1.83 GB ] Триада / Сезон: 2 / Серии: 1-6 из 16 [2021 WEBRip-AVC] bober100 Скачать
1 | 1
TNT serials [ 2.05 GB ] Триада / Сезон: 2 / Серии: 1-6 из 16 [2021 WEBRip] bober100 Скачать
2 | 2
TNT serials [ 4.73 GB ] Триада / Сезон: 2 / Серии: 1-6 из 16 [2021 WEBRip 1080p] bober100 Скачать
2 | 1
TNT serials [ 3.22 GB ] Триада / Сезон: 2 / Серии: 1-6 из 16 [2021 WEBRip 720p] bober100 Скачать
1 | 2
TNT serials [ 6 GB ] Триада / Сезон: 1 / Серии: 1-16 из 16 [2019 HDTVRip-AVC] bober100 Скачать
2 | 0
TNT serials [ 4.93 GB ] Триада / Сезон: 1 / Серии: 1-16 из 16 [2019 HDTVRip] bober100 Скачать
4 | 0

28-11-2019 20:33  

Отключить всю рекламу на сайте

    Дорогой пользователь! Огромная просьба, поблагодарите релизера, оцените раздачу и оставьте свои комментарий, если Вы скачали Триада через торрент бесплатно! Внесите свою лепту в развитие PiratBit!
    Комментировать посты могут только пользователи прошедшие не сложную регистрацию
    Показать сообщения:    

    Триада через торрент
    Скачать бесплатно Триада
    Триада скачать торрент
    Триада смотреть онлайн
    Cкачать фильм Триада бесплатно
    Триада скачать торрент в хорошем качестве
    Триада смотреть онлайн бесплатно в хорошем качестве


    Вы не можете начинать темы
    Вы не можете отвечать на сообщения
    Вы не можете редактировать свои сообщения
    Вы не можете удалять свои сообщения
    Вы не можете голосовать в опросах
    Вы не можете прикреплять файлы к сообщениям
    Вы можете скачивать файлы