Присоединяйтесь к нам в Telegram!, здесь всегда актуальный адрес сайта, оперативная поддержка и многое другое!!

>

5.9

iTunes

7.4

iTunes

9.4

1 сезон

1

7.4

2 сезон

7.2

iTunes

7.3

1 сезон

13

6.1

iTunes

8.3

GOG

30

ULTIMATE

pack

9.9

Лицензия

ВАЖНО

ИГРА 18+

pack

7.3

RePack

MK11

7.7

RePack

jed

7.8

RePack

fifa19

8.5

RePack

RDR2

RePack

NEED FOR SPEED™ PAYBACK

5 сезон

9 сезон

Бесстыжие 9 сезон

Все сериалы

все сериалы на PB.wtf

RePack

FAR CRY 5

Anonymous, добрый день, мы катастрофически не успеваем собрать деньги на оплату серверов, помогите нам пожалуйста 5,10,15р., для нас важна любая помощь . В качестве благодарности мы отключим Вам всю рекламу на сайте (укажите свой ник в строку Ваше имя)!

×
  
Magnet ссылка

Американская история ужасов / American Horror Story / Сезон: 9 / Серии: 1-5 из 10 (Брэдли Букер, Джон Дж. Грей, Гвинет Хордер-Пэйтон) [2019, ужасы, триллер, драма, WEB-DL 1080p] MVO [AMS] piratbit.org

Американская история ужасов через торрент piratbit.org

Размер: 12.04 GB | Добавлен: 2 года 1 мес. назад | Торрент скачан:1 раз
Смотреть онлайн Американская история ужасов | Скачать    Ребята, помогите собрать деньги на оплату серверов!!!

01-10-2019 01:17 Американская история ужасов Скачать торрент  

Американская история ужасов / American Horror Story
Год выпуска: 2019
Страна: США
Жанр: Ужасы, триллер, драма
Продолжительность: ~ 00:55:00
Перевод: Профессиональный многоголосый закадровый | AMS
Субтитры: Русские, английские

Режиссёр: Брэдли Букер, Джон Дж. Грей, Гвинет Хордер-Пэйтон, Дженнифер Линч

В ролях: Эмма Робертс, Билли Лурд, Лесли Гроссман, Коди Ферн, Мэтью Моррисон, Гас Кенуорти, Джон Кэрролл Линч, Анджелика Росс, Зак Вилла, Сара Полсон, ДеРон Хортон, Алан Билал, Тара Карзиан, Эшлин Маккензи, Калейна Кордова, Дон Суэйзи и другие

Описание:
Летом, 1984 года пятеро друзей покидают Лос-Анджелес, чтобы работать вожатыми в лагере «Рэдвуд». Когда они приспосабливаются к своей новой работе, начинают понимать: единственное, что страшнее рассказов у костра — это прошлое, преследующее тебя.

rating

Качество: WEB-DL 1080p
Контейнер: MKV

Видео: MPEG-4 AVC, 1920x1080, 16:9, ~9014-10000 Кбит/с (переменный), 23.976 fps, ~0.181-0.190 bit/pixel
Аудио 1: Русский, AC3, 48.0 KHz, 6 channels, 640 Kbps
Аудио 2: Английский, EAC3, 48.0 KHz, 6 channels, 640 Kbps


Реклама: Присутствует звуковая (два раза: в начале и конце по 10 сек)
General
Unique ID : 187956364517449025293337452502865907304 (0x8D67143DAF3FA402C5E9CE17ADF78E68)
Complete name : /American.Horror.Story.S09.1080p.WEB-DL.AMS/American.Horror.Story.S09E01.1080p.WEB-DL.AMS.mkv
Format : Matroska
Format version : Version 4
File size : 3.47 GiB
Duration : 48mn 10s
Overall bit rate : 10.3 Mbps
Movie name : American Horror Story 9x01 - MVO AMS
Encoded date : UTC 2019-09-29 16:07:44
Writing application : mkvmerge v8.2.0 ('World of Adventure') 64bit
Writing library : libebml v1.3.1 + libmatroska v1.4.2

Video
ID : 1
Format : AVC
Format/Info : Advanced Video Codec
Format profile : High@L4
Format settings : CABAC / 4 Ref Frames
Format settings, CABAC : Yes
Format settings, ReFrames : 4 frames
Codec ID : V_MPEG4/ISO/AVC
Duration : 48mn 10s
Bit rate mode : Constant
Bit rate : 9 014 Kbps
Nominal bit rate : 10 000 Kbps
Width : 1 920 pixels
Height : 1 080 pixels
Display aspect ratio : 16:9
Frame rate mode : Constant
Frame rate : 23.976 (24000/1001) fps
Color space : YUV
Chroma subsampling : 4:2:0
Bit depth : 8 bits
Scan type : Progressive
Bits/(Pixel*Frame) : 0.181
Stream size : 3.03 GiB (88%)
Title : American Horror Story 9x01 - MVO AMS
Language : English
Default : Yes
Forced : No
Color range : Limited
Color primaries : BT.709
Transfer characteristics : BT.709
Matrix coefficients : BT.709

Audio #1
ID : 2
Format : AC-3
Format/Info : Audio Coding 3
Commercial name : Dolby Digital
Codec ID : A_AC3
Duration : 48mn 10s
Bit rate mode : Constant
Bit rate : 640 Kbps
Channel(s) : 6 channels
Channel layout : L R C LFE Ls Rs
Sampling rate : 48.0 KHz
Frame rate : 31.250 fps (1536 SPF)
Bit depth : 16 bits
Compression mode : Lossy
Stream size : 221 MiB (6%)
Title : MVO AMS
Language : Russian
Service kind : Complete Main
Default : Yes
Forced : No

Audio #2
ID : 3
Format : E-AC-3
Format/Info : Enhanced AC-3
Commercial name : Dolby Digital Plus
Codec ID : A_EAC3
Duration : 48mn 10s
Bit rate mode : Constant
Bit rate : 640 Kbps
Channel(s) : 6 channels
Channel layout : L R C LFE Ls Rs
Sampling rate : 48.0 KHz
Frame rate : 31.250 fps (1536 SPF)
Compression mode : Lossy
Delay relative to video : 30ms
Stream size : 221 MiB (6%)
Title : Original
Language : English
Service kind : Complete Main
Default : No
Forced : No

Text #1
ID : 4
Format : UTF-8
Codec ID : S_TEXT/UTF8
Codec ID/Info : UTF-8 Plain Text
Duration : 47mn 16s
Bit rate : 83 bps
Count of elements : 599
Stream size : 29.1 KiB (0%)
Title : Rus-Subs
Language : Russian
Default : No
Forced : No

Text #2
ID : 5
Format : UTF-8
Codec ID : S_TEXT/UTF8
Codec ID/Info : UTF-8 Plain Text
Duration : 47mn 35s
Bit rate : 60 bps
Count of elements : 733
Stream size : 21.0 KiB (0%)
Title : Eng-Subs
Language : English
Default : No
Forced : No

Text #3
ID : 6
Format : UTF-8
Codec ID : S_TEXT/UTF8
Codec ID/Info : UTF-8 Plain Text
Duration : 47mn 35s
Bit rate : 67 bps
Count of elements : 851
Stream size : 23.4 KiB (0%)
Title : Eng-Subs (SDH)
Language : English
Default : No
Forced : No
Когда раздача ведётся путём добавления новых серий, при каждом добавлении создётся новый торрент. Чтобы начать докачку новой серии, пользователям необходимо сделать следующее:
(1) остановить скачивание,
(2) удалить старый торрент у себя из клиента (старые серии удалять не надо),
(3) скачать новый торрент и запустить его у себя в клиенте вместо старого, при этом указать клиенту путь в старую папку, куда и должно происходить скачивание новых серий.
Ваш клиент при этом должен произвести хеширование (проверку) старой папки (если не производит сам - помогите ему сделать это), и будет докачивать только те серии, которых у вас ещё нет. Старые серии при этом не удаляются, а продолжают раздаваться!
Eсли вы уже удалили старые серии, то предотвратить повторную закачку старых серий можно, отжав галочку в соответсвующих местах при запуске нового торрента. По возможности, желательно не удалять старые серии как можно дольше, чтобы релизёр не столько продолжал раздавать старые серии, а смог сконцентрироваться на новых.
piratbit.org



Скачать Американская история ужасов через торрент https://d.radikal.ru/d28/1909/f3/f7c1b2f57724.jpg Скачать, смотреть онлайн Американская история ужасов бесплантно в хорошем качестве Описание:Летом, 1984 года пятеро друзей покидают Лос-Анджелес, чтобы работать вожатыми в лагере «Рэдвуд». Когда они приспосабливаются к ... 10 10 2
Торрент: Зарегистрирован [2019-10-21 20:11] · скачан: 1 раз
Статус: √ проверено
Размер: 12.04 GB
Как cкачать? Как скачать Американская история ужасов через торрент | UTorrent

28-11-2019 20:33  

Отключить всю рекламу на сайте

    Дорогой пользователь! Огромная просьба, поблагодарите релизера, оцените раздачу и оставьте свои комментарий, если Вы скачали Американская история ужасов через торрент бесплатно!
    Комментировать посты могут только пользователи прошедшие не сложную регистрацию
    Показать сообщения:    

    Американская история ужасов через торрент
    Скачать бесплатно Американская история ужасов
    Американская история ужасов скачать торрент
    Американская история ужасов смотреть онлайн
    Cкачать фильм Американская история ужасов бесплатно
    Американская история ужасов скачать торрент в хорошем качестве
    Американская история ужасов смотреть онлайн бесплатно в хорошем качестве


    Вы не можете начинать темы
    Вы не можете отвечать на сообщения
    Вы не можете редактировать свои сообщения
    Вы не можете удалять свои сообщения
    Вы не можете голосовать в опросах
    Вы не можете прикреплять файлы к сообщениям
    Вы можете скачивать файлы