Доктор Стрэндж

Лицензия

Добыча

Дубляж

Уэнсдэй

1 сезон

Тор

Дубляж

В эфире

Дубляж

Там, где раки поют

MVO

Властелин колец

1 сезон

Deluxe

pack

Рекомендуем

30

Пиратка

ВАЖНО

ВАЖНО

Ghostwire

Пиратка

jed

RePack

nioh2

RePack

RDR2

RePack

NEED FOR SPEED™ PAYBACK

RePack

скачать торрент

Кинопоиск HD

Острые козырьки 6 сезон

6 сезон

FAR CRY 6

RePack

скачать торрент

Лицензия

скачать торрент

MVO

1

1 сезон

скачать торрент

1 сезон

скачать торрент

Лицензия

  

Солнцестояние / Midsommar (Ари Астер) [2019, Ужасы, триллер, драма, BDRip-AVC] Дубляж [iTunes]

Солнцестояние через торрент piratbit.org

Размер: 2.34 GB | Добавлен: 3 года 2 мес. назад | Торрент скачан:520 раз
Смотреть онлайн | Скачать   

02-10-2019 04:59 Солнцестояние Скачать торрент  

Солнцестояние / Midsommar«Вековая тьма пробудится»
Год выпуска: 2019
Страна: США, Швеция, Венгрия
Жанр: Ужасы, триллер, драма
Продолжительность: 02:27:05
Перевод: Дублированный | iTunes
Субтитры: Русские (форс., полные), английские (полные)

Режиссер: Ари Астер

rating

В ролях: Флоренс Пью, Джек Рейнор, Вильхельм Бломгрен, Уильям Джексон Харпер, Уилл Поултер, Эллора Торчия, Арчи Мадекве, Хенрик Норлен, Гуннель Фред, Изабель Грилл, Агнес Вестерлунд Разе, Юлия Рагнарссон, Ларс Ворингер, Анна Острём, Хампус Халльберг, Лив Мяёнес, Луиз Петерхофф, Кати Домби, Матс Бломгрен, Михай Касаш, Остин Р. Грант, Габриелла Фон

Описание: День летнего солнцестояния - древний праздник, который во всех культурах окутан мистическим ореолом. В отрезанном от цивилизованного мира шведском поселении раз в 90 лет в этот день проводится уникальный обряд. Именно туда отправляется группа молодых американских антропологов. Однако вскоре после прибытия там начинает происходить нечто необъяснимое, и под светом солнца исследователям открывается настоящая тьма.

Качество: BDRip-AVC
Формат: MKV

Видео: 1024x512 (2:1), 23,976 fps, x264 ~1 894 kbps avg, 0.151 bit/pixel
Аудио: 48 kHz, AC3 Dolby Digital, 3/2 (L,C,R,l,r) + LFE ch, ~384.00 kbps avg | RUS (iTunes)
скриншот  скриншот  скриншот  скриншот  скриншот  

Общее
Уникальный идентификатор : 169690846144185308441121261911871579693 (0x7FA944A7F3CCC71BCAA6753B8AA7E62D)
Полное имя : F:OlLanDGroupMidsommar.2019.BDRip(AVC).OllanDGroup.mkv
Формат : Matroska
Версия формата : Version 4 / Version 2
Размер файла : 2,34 Гбайт
Продолжительность : 2 ч. 27 м.
Общий поток : 2280 Кбит/сек
Название фильма : Midsommar.2019 #TorpedoUK#
Дата кодирования : UTC 2019-10-02 03:13:01
Программа кодирования : mkvmerge v29.0.0 ('Like It Or Not') 64-bit
Библиотека кодирования : libebml v1.3.6 + libmatroska v1.4.9

Видео
Идентификатор : 1
Формат : AVC
Формат/Информация : Advanced Video Codec
Профиль формата : High@L4.1
Параметр CABAC формата : Да
Параметр ReFrames формата : 10 кадров
Идентификатор кодека : V_MPEG4/ISO/AVC
Продолжительность : 2 ч. 27 м.
Битрейт : 1894 Кбит/сек
Ширина : 1024 пикселя
Высота : 512 пикселей
Соотношение сторон : 2,000
Режим частоты кадров : Постоянный
Частота кадров : 23,976 (24000/1001) кадра/сек
Цветовое пространство : YUV
Субдискретизация насыщенности : 4:2:0
Битовая глубина : 8 бит
Тип развёртки : Прогрессивная
Бит/(Пиксели*Кадры) : 0.151
Размер потока : 1,95 Гбайт (83%)
Библиотека кодирования : x264 core 146 r2538 121396c
Настройки программы : cabac=1 / ref=10 / deblock=1:-3:-3 / analyse=0x3:0x113 / me=umh / subme=11 / psy=1 / psy_rd=1.00:0.03 / mixed_ref=1 / me_range=48 / chroma_me=1 / trellis=2 / 8x8dct=1 / cqm=0 / deadzone=21,11 / fast_pskip=1 / chroma_qp_offset=-6 / threads=6 / lookahead_threads=1 / sliced_threads=0 / nr=0 / decimate=1 / interlaced=0 / bluray_compat=0 / constrained_intra=0 / bframes=11 / b_pyramid=2 / b_adapt=2 / b_bias=0 / direct=3 / weightb=1 / open_gop=0 / weightp=2 / keyint=240 / keyint_min=23 / scenecut=40 / intra_refresh=0 / rc_lookahead=40 / rc=2pass / mbtree=0 / bitrate=1894 / ratetol=1.0 / qcomp=0.60 / qpmin=0 / qpmax=69 / qpstep=4 / cplxblur=20.0 / qblur=0.5 / vbv_maxrate=50000 / vbv_bufsize=62500 / nal_hrd=none / filler=0 / ip_ratio=1.40 / pb_ratio=1.30 / aq=1:1.00
Язык : English
Default : Да
Forced : Нет

Аудио
Идентификатор : 2
Формат : AC-3
Формат/Информация : Audio Coding 3
Расширение режима : CM (complete main)
Параметр Endianness формата : Big
Идентификатор кодека : A_AC3
Продолжительность : 2 ч. 27 м.
Вид битрейта : Постоянный
Битрейт : 384 Кбит/сек
Каналы : 6 каналов
Расположение каналов : Front: L C R, Side: L R, LFE
Частота : 48,0 КГц
Частота кадров : 31,250 кадров/сек (1536 spf)
Битовая глубина : 16 бит
Метод сжатия : С потерями
Размер потока : 404 Мбайт (17%)
Заголовок : Дубляж [iTunes]
Язык : Russian
Default : Да
Forced : Нет

Текст #1
Идентификатор : 3
Формат : UTF-8
Идентификатор кодека : S_TEXT/UTF8
Идентификатор кодека/Информация : UTF-8 Plain Text
Продолжительность : 7 м. 53 с.
Битрейт : 5 бит/сек
Count of elements : 6
Размер потока : 313 байт (0%)
Заголовок : Forced
Язык : Russian
Default : Да
Forced : Нет

Текст #2
Идентификатор : 4
Формат : UTF-8
Идентификатор кодека : S_TEXT/UTF8
Идентификатор кодека/Информация : UTF-8 Plain Text
Продолжительность : 2 ч. 16 м.
Битрейт : 145 бит/сек
Count of elements : 1430
Размер потока : 145 Кбайт (0%)
Заголовок : Full
Язык : Russian
Default : Нет
Forced : Нет

Текст #3
Идентификатор : 5
Формат : UTF-8
Идентификатор кодека : S_TEXT/UTF8
Идентификатор кодека/Информация : UTF-8 Plain Text
Продолжительность : 2 ч. 11 м.
Битрейт : 40 бит/сек
Count of elements : 1136
Размер потока : 38,9 Кбайт (0%)
Заголовок : Full
Язык : English
Default : Нет
Forced : Нет

Меню
00:00:00.000 : en:Chapter 01
00:12:34.712 : en:Chapter 02
00:18:06.877 : en:Chapter 03
00:25:15.222 : en:Chapter 04
00:33:35.722 : en:Chapter 05
00:40:56.954 : en:Chapter 06
00:49:23.669 : en:Chapter 07
00:57:14.764 : en:Chapter 08
01:05:52.740 : en:Chapter 09
01:12:59.083 : en:Chapter 10
01:20:37.040 : en:Chapter 11
01:33:58.591 : en:Chapter 12
01:41:34.171 : en:Chapter 13
01:53:50.365 : en:Chapter 14
02:02:22.960 : en:Chapter 15
02:14:07.039 : en:Chapter 16




Скачать Солнцестояние через торрент https://i86.fastpic.ru/big/2019/1002/11/f7c4743dbdaa07446f5b1347838ddf11.png Скачать, смотреть онлайн Солнцестояние бесплантно в хорошем качестве Описание: День летнего солнцестояния - древний праздник, который во всех культурах окутан мистическим ореолом. В отрезанном от ... 9.2 10 13
Торрент: Зарегистрирован [2019-10-02 04:59] · скачан: 520 раз
Статус: √ проверено
Размер: 2.34 GB
Как cкачать? Как скачать Солнцестояние через торрент | UTorrent

% Раздел Тема Автор DL S | L
Фильмы 2019-2020 [DVDrip, WEB-DLRip, HDrip] (DUB, MVO) [ 2.18 GB ] Солнцестояние / Midsommar | iTunes | BDRip bober100 Скачать
1 | 0
Фильмы 2019-2020 [DVDrip, WEB-DLRip, HDrip] (DUB, MVO) [ 1.46 GB ] Солнцестояние / Midsommar | iTunes | BDRip bober100 Скачать
1 | 0
Фильмы [HD 720p, 1080p] (Хороший звук DUB, MVO) [ 12.75 GB ] Солнцестояние / Midsommar | iTunes | 1080p bober100 Скачать
1 | 0
Фильмы [HD 720p, 1080p] (Хороший звук DUB, MVO) [ 8.37 GB ] Солнцестояние / Midsommar | iTunes | 720p bober100 Скачать
1 | 0
Фильмы 2019-2020 [DVDrip, WEB-DLRip, HDrip] (DUB, MVO) [ 2.84 GB ] Солнцестояние / Midsommar | iTunes | BDRip bober100 Скачать
1 | 0
Фильмы с авторской озвучкой [ 2.91 GB ] Солнцестояние / Midsommar | AVO | BDRip Леонид Ильич Скачать
1 | 0
Ultra HD (UHD: 2K, 4K, 8K) [ 17.54 GB ] Солнцестояние / Midsommar | iTunes | 2160p sheker187 Скачать
1 | 0

28-11-2019 20:33  


Отключить вcю реклaмy на сайте, в т.ч. и в плеере онлайн просмотра!

02-10-2019 15:05 Солнцестояние Скачать торрент  

Классный фильм. Смотреть не рекомендую.



03-10-2019 14:06 Солнцестояние Скачать торрент  

ну и г...о



    Дорогой пользователь! Огромная просьба, поблагодарите релизера, оцените раздачу и оставьте свои комментарий, если Вы скачали Солнцестояние через торрент бесплатно!!
    Комментировать посты могут только пользователи прошедшие не сложную регистрацию
    Показать сообщения:    


    Солнцестояние через торрент
    Скачать бесплатно Солнцестояние
    Солнцестояние скачать торрент
    Солнцестояние смотреть онлайн
    Cкачать фильм Солнцестояние бесплатно
    Солнцестояние скачать торрент в хорошем качестве
    Солнцестояние смотреть онлайн бесплатно в хорошем качестве
    Вы не можете начинать темы
    Вы не можете отвечать на сообщения
    Вы не можете редактировать свои сообщения
    Вы не можете удалять свои сообщения
    Вы не можете голосовать в опросах
    Вы не можете прикреплять файлы к сообщениям
    Вы можете скачивать файлы
    Солнцестояние / Midsommar [2019, Ужасы, триллер, драма, BDRip-AVC] Дубляж [iTunes] смотреть онлайн, скачать торрент picoco.icu