Достать ножи: Стеклянная луковица

MVO

Добыча

Дубляж

Уэнсдэй

1 сезон

Тор

Дубляж

13 клиническая

1 сезон

Жестокая ночь

MVO

Одни из нас

1 сезон

Deluxe

pack

Рекомендуем

30

Пиратка

ВАЖНО

ВАЖНО

Ghostwire

Пиратка

jed

RePack

nioh2

RePack

RDR2

RePack

NEED FOR SPEED™ PAYBACK

RePack

скачать торрент

Кинопоиск HD

Острые козырьки 6 сезон

6 сезон

FAR CRY 6

RePack

скачать торрент

Лицензия

скачать торрент

MVO

1

1 сезон

скачать торрент

1 сезон

скачать торрент

Лицензия

  

Аладдин / Aladdin (Гай Ричи) [2019, мюзикл, фэнтези, мелодрама, комедия, приключения, семейный, UHD BDRemux 2160p] Дубляж [Лицензия]

Аладдин через торрент piratbit.org

Размер: 49.36 GB | Добавлен: 3 года 3 мес. назад | Торрент скачан:249 раз
Смотреть онлайн | Скачать | Поддержите нас   

03-10-2019 00:41 Аладдин Скачать торрент  

Аладдин / Aladdin Год выпуска: 2019
Страна: США
Жанр: мюзикл, фэнтези, мелодрама, комедия, приключения, семейный
Продолжительность: 02:07:58
Перевод: Дублированный | Лицензия
Субтитры: Русские (Full, SDH), английские

Режиссер: Гай Ричи

rating

В ролях:

Мена Массуд (Aladdin), Наоми Скотт (Jasmine), Уилл Смит (Genie / Mariner), Марван Кензари (Jafar), Навид Негабан (Sultan), Назим Педрад (Dalia), Билли Магнуссен (Prince Anders), Джордан А. Нэш (Omar), Талия Блэр (Lian), Обри Лин (Omi), Амир Бутрус (Jamal), Нуман Аджар (Hakim)
Описание: Молодой воришка по имени Аладдин хочет стать принцем, чтобы жениться на принцессе Жасмин. Тем временем визирь Аграбы Джафар намеревается захватить Влacть над Аграбой, а для этого он стремится заполучить волшебную лампу, хранящуюся в пещере чудес, доступ к которой разрешен лишь тому, кого называют «алмаз неограненный», и этим человеком является никто иной, как сам Аладдин.

Качество: UHD BDRemux 2160p
Формат: MKV

Видео: 3840x2160 at 23.976 fps, MPEG-H HEVC HDR Video, 49000 kbps avg
Аудио #01: 48 kHz, AC3, 5.1, 640 Kbps | Лицензия | RUS |
Аудио #02: 48 kHz, TrueHD, 7.1, 4877 Kbps | Оригинал | ENG |
Аудио #03: 48 kHz, AC3, 5.1, 640 Kbps | Оригинал | ENG |
скриншот  скриншот  скриншот  скриншот  скриншот  

General
Unique ID : 165233068012012500210616591751960181383 (0x7C4EBB39ABA0952B330C0A66078DBA87)
Complete name : D:Video111Aladdin.2019.DREMUX.2160p.HDR.seleZen.mkv
Format : Matroska
Format version : Version 4
File size : 49.4 GiB
Duration : 2 h 7 min
Overall bit rate mode : Variable
Overall bit rate : 55.2 Mb/s
Movie name : Aladdin 2019 4K from селезень
Encoded date : UTC 2019-10-02 23:33:11
Writing application : mkvmerge v22.0.0 ('At The End Of The World') 64-bit
Writing library : libebml v1.3.5 + libmatroska v1.4.8

Video
ID : 1
Format : HEVC
Format/Info : High Efficiency Video Coding
Format profile : Main 10@L5.1@High
HDR format : SMPTE ST 2086, HDR10 compatible
Codec ID : V_MPEGH/ISO/HEVC
Duration : 2 h 7 min
Bit rate : 49.0 Mb/s
Width : 3 840 pixels
Height : 2 160 pixels
Display aspect ratio : 16:9
Frame rate mode : Constant
Frame rate : 23.976 (24000/1001) FPS
Color space : YUV
Chroma subsampling : 4:2:0 (Type 2)
Bit depth : 10 bits
Bits/(Pixel*Frame) : 0.246
Stream size : 43.8 GiB (89%)
Writing library : ATEME Titan File 3.9.0 (4.9.0.0)
Language : English
Default : Yes
Forced : No
Color range : Limited
Color primaries : BT.2020
Transfer characteristics : PQ
Matrix coefficients : BT.2020 non-constant
Mastering display color pri : Display P3
Mastering display luminance : min: 0.0050 cd/m2, max: 4000 cd/m2

Audio #1
ID : 2
Format : AC-3
Format/Info : Audio Coding 3
Commercial name : Dolby Digital
Codec ID : A_AC3
Duration : 2 h 7 min
Bit rate mode : Constant
Bit rate : 640 kb/s
Channel(s) : 6 channels
Channel layout : L R C LFE Ls Rs
Sampling rate : 48.0 kHz
Frame rate : 31.250 FPS (1536 SPF)
Bit depth : 16 bits
Compression mode : Lossy
Stream size : 586 MiB (1%)
Title : Дубляж [License]
Language : Russian
Service kind : Complete Main
Default : Yes
Forced : Yes

Audio #2
ID : 3
Format : MLP FBA 16-ch
Format/Info : Meridian Lossless Packing FBA with 16-channel presentation
Commercial name : Dolby TrueHD with Dolby Atmos
Codec ID : A_TRUEHD
Duration : 2 h 7 min
Bit rate mode : Variable
Bit rate : 4 877 kb/s
Maximum bit rate : 9 060 kb/s
Channel(s) : 8 channels
Channel layout : L R C LFE Ls Rs Lb Rb
Sampling rate : 48.0 kHz
Frame rate : 1 200.000 FPS (40 SPF)
Compression mode : Lossless
Stream size : 4.36 GiB (9%)
Title : Original
Language : English
Default : No
Forced : No
Number of dynamic objects : 13
Bed channel count : 1 channel
Bed channel configuration : LFE

Audio #3
ID : 4
Format : AC-3
Format/Info : Audio Coding 3
Commercial name : Dolby Digital
Codec ID : A_AC3
Duration : 2 h 7 min
Bit rate mode : Constant
Bit rate : 640 kb/s
Channel(s) : 6 channels
Channel layout : L R C LFE Ls Rs
Sampling rate : 48.0 kHz
Frame rate : 31.250 FPS (1536 SPF)
Bit depth : 16 bits
Compression mode : Lossy
Stream size : 586 MiB (1%)
Language : English
Service kind : Complete Main
Default : No
Forced : No

Text #1
ID : 5
Format : UTF-8
Codec ID : S_TEXT/UTF8
Codec ID/Info : UTF-8 Plain Text
Duration : 2 h 6 min
Bit rate : 82 b/s
Count of elements : 1788
Stream size : 76.8 KiB (0%)
Title : Full
Language : Russian
Default : No
Forced : No

Text #2
ID : 6
Format : UTF-8
Codec ID : S_TEXT/UTF8
Codec ID/Info : UTF-8 Plain Text
Duration : 2 h 0 min
Bit rate : 110 b/s
Count of elements : 2327
Stream size : 97.2 KiB (0%)
Title : SDH
Language : Russian
Default : No
Forced : No

Text #3
ID : 7
Format : UTF-8
Codec ID : S_TEXT/UTF8
Codec ID/Info : UTF-8 Plain Text
Duration : 2 h 7 min
Bit rate : 65 b/s
Count of elements : 2113
Stream size : 61.2 KiB (0%)
Title : Full
Language : English
Default : No
Forced : No

Text #4
ID : 8
Format : UTF-8
Codec ID : S_TEXT/UTF8
Codec ID/Info : UTF-8 Plain Text
Duration : 2 h 7 min
Bit rate : 74 b/s
Count of elements : 2435
Stream size : 69.7 KiB (0%)
Title : SDH
Language : English
Default : No
Forced : No

Menu
00:00:00.000 : en:Chapter 01
00:04:49.372 : en:Chapter 02
00:13:04.659 : en:Chapter 03
00:18:55.760 : en:Chapter 04
00:26:18.410 : en:Chapter 05
00:30:26.324 : en:Chapter 06
00:39:51.889 : en:Chapter 07
00:54:50.162 : en:Chapter 08
01:02:18.652 : en:Chapter 09
01:09:19.489 : en:Chapter 10
01:21:53.033 : en:Chapter 11
01:33:51.417 : en:Chapter 12
01:38:48.381 : en:Chapter 13
01:45:19.396 : en:Chapter 14
01:53:07.030 : en:Chapter 15
01:59:38.463 : en:Chapter 16




Скачать Аладдин через торрент https://img15.lostpic.net/2019/09/02/2b64ae4f7865e22d72889325c80778a7.jpg Скачать, смотреть онлайн Аладдин бесплантно в хорошем качестве Описание: Молодой воришка по имени Аладдин хочет стать принцем, чтобы жениться на принцессе Жасмин. Тем временем визирь Аграбы Джафар ... 10 10 5
Info! Золотая раздача, скачанное не засчитывается.
Торрент: Зарегистрирован [2019-10-03 00:41] · скачан: 249 раз
Статус: √ проверено
Размер: 49.36 GB
Как cкачать? Как скачать Аладдин через торрент | UTorrent

% Раздел Тема Автор DL S | L
Фильмы (Blu-ray, BD-Remux, HDDVD) [ 41.82 GB ] Аладдин / Aladdin | Лицензия | BD Remux 1080p bober100 Скачать
1 | 0
Фильмы 2019-2020 [DVDrip, WEB-DLRip, HDrip] (DUB, MVO) [ 1.46 GB ] Аладдин / Aladdin | Лицензия | BDRip-AVC bober100 Скачать
1 | 0
Ultra HD (UHD: 2K, 4K, 8K) [ 27.13 GB ] Аладдин / Aladdin | Лицензия | 2160p bober100 Скачать
1 | 0
Фильмы 2019-2020 [DVDrip, WEB-DLRip, HDrip] (DUB, MVO) [ 2.41 GB ] Аладдин / Aladdin | Лицензия | BDRip-AVC bober100 Скачать
2 | 0
Фильмы (Blu-ray, BD-Remux, HDDVD) [ 27.53 GB ] Аладдин / Aladdin | Лицензия | BD Remux 1080p bober100 Скачать
1 | 0
Фильмы [HD 720p, 1080p] (Хороший звук DUB, MVO) [ 7.97 GB ] Аладдин / Aladdin | Лицензия | 720p bober100 Скачать
2 | 0
Фильмы [HD 720p, 1080p] (Хороший звук DUB, MVO) [ 13.02 GB ] Аладдин / Aladdin | Лицензия | 1080p bober100 Скачать
1 | 0

28-11-2019 20:33  


Отключить вcю реклaмy на сайте, в т.ч. и в плеере онлайн просмотра!

    Дорогой пользователь! Огромная просьба, поблагодарите релизера, оцените раздачу и оставьте свои комментарий, если Вы скачали Аладдин через торрент бесплатно!!
    Комментировать посты могут только пользователи прошедшие не сложную регистрацию
    Показать сообщения:    


    Аладдин через торрент
    Скачать бесплатно Аладдин
    Аладдин скачать торрент
    Аладдин смотреть онлайн
    Cкачать фильм Аладдин бесплатно
    Аладдин скачать торрент в хорошем качестве
    Аладдин смотреть онлайн бесплатно в хорошем качестве
    Вы не можете начинать темы
    Вы не можете отвечать на сообщения
    Вы не можете редактировать свои сообщения
    Вы не можете удалять свои сообщения
    Вы не можете голосовать в опросах
    Вы не можете прикреплять файлы к сообщениям
    Вы можете скачивать файлы
    Аладдин / Aladdin [2019, мюзикл, фэнтези, мелодрама, комедия, приключения, семейный, UHD BDRemux 2160p] Дубляж [Лицензия] смотреть онлайн, скачать торрент picoco.icu