Достать ножи: Стеклянная луковица

MVO

Добыча

Дубляж

Уэнсдэй

1 сезон

Тор

Дубляж

13 клиническая

1 сезон

Жестокая ночь

MVO

Одни из нас

1 сезон

Deluxe

pack

Рекомендуем

30

Пиратка

ВАЖНО

ВАЖНО

Ghostwire

Пиратка

jed

RePack

nioh2

RePack

RDR2

RePack

NEED FOR SPEED™ PAYBACK

RePack

скачать торрент

Кинопоиск HD

Острые козырьки 6 сезон

6 сезон

FAR CRY 6

RePack

скачать торрент

Лицензия

скачать торрент

MVO

1

1 сезон

скачать торрент

1 сезон

скачать торрент

Лицензия

  

Тюряга / Взаперти / Lock Up (Джон Флинн) [1989, боевик, драма, криминал, UHD BDRemux 2160p] MVO+3xDVO+5xAVO

Тюряга через торрент piratbit.org

Размер: 68.63 GB | Добавлен: 3 года 3 мес. назад | Торрент скачан:5 раз
Смотреть онлайн | Скачать | Поддержите нас   

03-10-2019 10:50 Тюряга Скачать торрент  

Тюряга / Взаперти / Lock Up
Год выпуска: 1989
Страна: США
Жанр: боевик, драма, криминал
Продолжительность: 01:48:54
Перевод: Профессиональный многоголосый, Профессиональный двухголосый, Авторский
Cубтитры: Русские, английские

Режиссер: Джон Флинн / John Flynn

В ролях: Сильвестр Сталлоне, Дональд Сазерленд, Джон Эймос, Сонни Лэндэм, Том Сайзмор, Фрэнк МакРей, Дарлэнн Флюгел, Уильям Аллен Янг, Ларри Романо, Джордан Лунд

Описание: Свободолюбивый Фрэнк Леоне, борец за справедливость, оказавшийся в тюрьме, уверен, что через несколько месяцев покинет ее стены. Он — примерный заключенный, но некоторые тюремщики до сих пор помнят совершенный им побег, закончившийся дополнительным сроком для Фрэнка и испорченной карьерой директора колонии. Пострадавший директор давно «имеет зуб» на него, поэтому в одно чудесное утро героя неожиданно переводят в другую тюрьму, настоящий ад, где служит начальником тот самый Уорден Драмгул. На его послужном списке теперь пятно по вине Фрэнка, и поэтому он клянется устроить заключенному Леоне веселую жизнь, спровоцировать того на побег и доказать, что ненавистный ему зек неисправим. Драмгул — настоящий диктатор в колонии, приказы которого беспрекословно исполняются охранниками и арестантами, и теперь он желает, чтобы Фрэнк как можно дольше задержался в стенах тюрьмы Гетвей.



Качество: UHD BDRemux 2160p
Формат: MKV

Видео: HEVC HEVC, 67.5 Мбит/с, 3840x2160, 24 кадр/с
Аудио 1: Русский, 192 Кбит/сек, 48,0 КГц, 2 канала, AC-3 - (многоголосый закадровый) - РТР
Аудио 2: Русский, DTS MA: 5.1 / 48,0 КГц / 4054 Кбит/сек / 24 бит / (DTS Core: 5.1 / 48,0 КГц / 1509 Кбит/сек / 24 бит)-(двухголосый закадровый) - R5
Аудио 3: Русский, 192 Кбит/сек, 48,0 КГц, 2 канала, AC-3 - (двухголосый закадровый) - ОРТ
Аудио 4: Русский, 192 Кбит/сек, 48,0 КГц, 2 канала, AC-3 - (двухголосый закадровый) - Премьер Видео Фильм
Аудио 5: Русский, DTS MA: 5.1 / 48,0 КГц / 4052 Кбит/сек / 24 бит / (DTS Core: 5.1 / 48,0 КГц / 1509 Кбит/сек / 24 бит) - Гаврилов
Аудио 6: Русский, DTS MA: 5.1 / 48,0 КГц / 4057 Кбит/сек / 24 бит / (DTS Core: 5.1 / 48,0 КГц / 1509 Кбит/сек / 24 бит) - Живов
Аудио 7: Русский, DTS MA: 5.1 / 48,0 КГц / 4048 Кбит/сек / 24 бит / (DTS Core: 5.1 / 48,0 КГц / 1509 Кбит/сек / 24 бит) - Дохалов
Аудио 8: Русский, DTS MA: 2.0 / 48,0 КГц / 1745 Кбит/сек / 16 бит / (DTS Core: 2.0 / 48,0 КГц / 1509 Кбит/сек / 16 бит) - Горчаков
Аудио 9: Русский, 192 Кбит/сек, 48,0 КГц, 2 канала, AC-3 - Марченко
Аудио 10: Русский, 192 Кбит/сек, 48,0 КГц, 2 канала, AC-3 - Махонько
Аудио 11: Английский, DTS MA: 5.1 / 48,0 КГц / 3982 Кбит/сек / 24 бит / (DTS Core: 5.1 / 48,0 КГц / 1509 Кбит/сек / 24 бит)
скриншот  скриншот  скриншот  скриншот  

Общее
Уникальный идентификатор : 209393344039594763650686724530895748524 (0x9D87B0EED23EDCEEA37CE70EFF5E7DAC)
Полное имя : R:\MONAR\Художественные фильмы\Зарубежное кино\Тюряга (1989) UHD BDRemux 2160p.mkv
Формат : Matroska
Версия формата : Version 4
Размер файла : 68,6 Гбайт
Продолжительность : 1 ч. 48 м.
Режим общего битрейта : Переменный
Общий поток : 90,4 Мбит/сек
Название фильма : Lock up (1989)
Дата кодирования : UTC 2019-10-02 15:29:21
Программа кодирования : mkvmerge v37.0.0 ('Leave It') 64-bit
Библиотека кодирования : libebml v1.3.9 + libmatroska v1.5.2
Обложка : Yes
Attachments : cover.jpg

Видео
Идентификатор : 1
Формат : HEVC
Формат/Информация : High Efficiency Video Coding
Профиль формата : Main 10@L5.1@High
HDR_Format/String : SMPTE ST 2086, HDR10 compatible
Идентификатор кодека : V_MPEGH/ISO/HEVC
Продолжительность : 1 ч. 48 м.
Битрейт : 67,5 Мбит/сек
Ширина : 3840 пикселей
Высота : 2160 пикселей
Соотношение сторон : 16:9
Режим частоты кадров : Постоянный
Частота кадров : 24,000 кадра/сек
Цветовое пространство : YUV
Субдискретизация насыщенности : 4:2:0 (Type 2)
Битовая глубина : 10 бит
Бит/(Пиксели*Кадры) : 0.339
Размер потока : 51,2 Гбайт (75%)
Язык : English
Default : Да
Forced : Нет
Цветовой диапазон : Limited
Основные цвета : BT.2020
Характеристики трансфера : PQ
Коэффициенты матрицы : BT.2020 non-constant
MasteringDisplay_ColorPrimaries : Display P3
MasteringDisplay_Luminance : min: 0.0001 cd/m2, max: 1000 cd/m2
MaxCLL : 987 cd/m2
MaxFALL : 407 cd/m2

Аудио #1
Идентификатор : 2
Формат : AC-3
Формат/Информация : Audio Coding 3
Коммерческое название : Dolby Digital
Идентификатор кодека : A_AC3
Продолжительность : 1 ч. 48 м.
Вид битрейта : Постоянный
Битрейт : 192 Кбит/сек
Каналы : 2 канала
ChannelLayout : L R
Частота : 48,0 КГц
Частота кадров : 31,250 кадров/сек (1536 SPF)
Метод сжатия : С потерями
Размер потока : 149 Мбайт (0%)
Заголовок : MVO (RTR)
Язык : Russian
ServiceKind/String : Complete Main
Default : Да
Forced : Нет

Аудио #2
Идентификатор : 3
Формат : DTS XLL
Формат/Информация : Digital Theater Systems
Коммерческое название : DTS-HD Master Audio
Идентификатор кодека : A_DTS
Продолжительность : 1 ч. 48 м.
Вид битрейта : Переменный
Битрейт : 4054 Кбит/сек
Каналы : 6 каналов
ChannelLayout : C L R Ls Rs LFE
Частота : 48,0 КГц
Частота кадров : 93,750 кадра/сек (512 SPF)
Битовая глубина : 24 бит
Метод сжатия : Без потерь
Размер потока : 3,08 Гбайт (4%)
Заголовок : DVO (R5)
Язык : Russian
Default : Нет
Forced : Нет

Аудио #3
Идентификатор : 4
Формат : AC-3
Формат/Информация : Audio Coding 3
Коммерческое название : Dolby Digital
Идентификатор кодека : A_AC3
Продолжительность : 1 ч. 48 м.
Вид битрейта : Постоянный
Битрейт : 192 Кбит/сек
Каналы : 2 канала
ChannelLayout : L R
Частота : 48,0 КГц
Частота кадров : 31,250 кадров/сек (1536 SPF)
Метод сжатия : С потерями
Размер потока : 149 Мбайт (0%)
Заголовок : DVO (ORT)
Язык : Russian
ServiceKind/String : Complete Main
Default : Нет
Forced : Нет

Аудио #4
Идентификатор : 5
Формат : AC-3
Формат/Информация : Audio Coding 3
Коммерческое название : Dolby Digital
Идентификатор кодека : A_AC3
Продолжительность : 1 ч. 48 м.
Вид битрейта : Постоянный
Битрейт : 192 Кбит/сек
Каналы : 2 канала
ChannelLayout : L R
Частота : 48,0 КГц
Частота кадров : 31,250 кадров/сек (1536 SPF)
Метод сжатия : С потерями
Размер потока : 149 Мбайт (0%)
Заголовок : DVO (Premjer)
Язык : Russian
ServiceKind/String : Complete Main
Default : Нет
Forced : Нет

Аудио #5
Идентификатор : 6
Формат : DTS XLL
Формат/Информация : Digital Theater Systems
Коммерческое название : DTS-HD Master Audio
Идентификатор кодека : A_DTS
Продолжительность : 1 ч. 48 м.
Вид битрейта : Переменный
Битрейт : 4052 Кбит/сек
Каналы : 6 каналов
ChannelLayout : C L R Ls Rs LFE
Частота : 48,0 КГц
Частота кадров : 93,750 кадра/сек (512 SPF)
Битовая глубина : 24 бит
Метод сжатия : Без потерь
Размер потока : 3,08 Гбайт (4%)
Заголовок : AVO (Gavrilov)
Язык : Russian
Default : Нет
Forced : Нет

Аудио #6
Идентификатор : 7
Формат : DTS XLL
Формат/Информация : Digital Theater Systems
Коммерческое название : DTS-HD Master Audio
Идентификатор кодека : A_DTS
Продолжительность : 1 ч. 48 м.
Вид битрейта : Переменный
Битрейт : 4057 Кбит/сек
Каналы : 6 каналов
ChannelLayout : C L R Ls Rs LFE
Частота : 48,0 КГц
Частота кадров : 93,750 кадра/сек (512 SPF)
Битовая глубина : 24 бит
Метод сжатия : Без потерь
Размер потока : 3,08 Гбайт (4%)
Заголовок : AVO (Givov)
Язык : Russian
Default : Нет
Forced : Нет

Аудио #7
Идентификатор : 8
Формат : DTS XLL
Формат/Информация : Digital Theater Systems
Коммерческое название : DTS-HD Master Audio
Идентификатор кодека : A_DTS
Продолжительность : 1 ч. 48 м.
Вид битрейта : Переменный
Битрейт : 4048 Кбит/сек
Каналы : 6 каналов
ChannelLayout : C L R Ls Rs LFE
Частота : 48,0 КГц
Частота кадров : 93,750 кадра/сек (512 SPF)
Битовая глубина : 24 бит
Метод сжатия : Без потерь
Размер потока : 3,07 Гбайт (4%)
Заголовок : AVO (Dohalov)
Язык : Russian
Default : Нет
Forced : Нет

Аудио #8
Идентификатор : 9
Формат : DTS XLL
Формат/Информация : Digital Theater Systems
Коммерческое название : DTS-HD Master Audio
Идентификатор кодека : A_DTS
Продолжительность : 1 ч. 48 м.
Вид битрейта : Переменный
Битрейт : 1745 Кбит/сек
Каналы : 2 канала
ChannelLayout : L R
Частота : 48,0 КГц
Частота кадров : 93,750 кадра/сек (512 SPF)
Битовая глубина : 16 бит
Метод сжатия : Без потерь
Размер потока : 1,32 Гбайт (2%)
Заголовок : AVO (Gorchakov)
Язык : Russian
Default : Нет
Forced : Нет

Аудио #9
Идентификатор : 10
Формат : AC-3
Формат/Информация : Audio Coding 3
Коммерческое название : Dolby Digital
Идентификатор кодека : A_AC3
Продолжительность : 1 ч. 48 м.
Вид битрейта : Постоянный
Битрейт : 192 Кбит/сек
Каналы : 2 канала
ChannelLayout : L R
Частота : 48,0 КГц
Частота кадров : 31,250 кадров/сек (1536 SPF)
Метод сжатия : С потерями
Размер потока : 149 Мбайт (0%)
Заголовок : AVO (Marchenko)
Язык : Russian
ServiceKind/String : Complete Main
Default : Нет
Forced : Нет

Аудио #10
Идентификатор : 11
Формат : AC-3
Формат/Информация : Audio Coding 3
Коммерческое название : Dolby Digital
Идентификатор кодека : A_AC3
Продолжительность : 1 ч. 48 м.
Вид битрейта : Постоянный
Битрейт : 192 Кбит/сек
Каналы : 2 канала
ChannelLayout : L R
Частота : 48,0 КГц
Частота кадров : 31,250 кадров/сек (1536 SPF)
Метод сжатия : С потерями
Размер потока : 149 Мбайт (0%)
Заголовок : AVO (Mahonko)
Язык : Russian
ServiceKind/String : Complete Main
Default : Нет
Forced : Нет

Аудио #11
Идентификатор : 12
Формат : DTS XLL
Формат/Информация : Digital Theater Systems
Коммерческое название : DTS-HD Master Audio
Идентификатор кодека : A_DTS
Продолжительность : 1 ч. 48 м.
Вид битрейта : Переменный
Битрейт : 3982 Кбит/сек
Каналы : 6 каналов
ChannelLayout : C L R Ls Rs LFE
Частота : 48,0 КГц
Частота кадров : 93,750 кадра/сек (512 SPF)
Битовая глубина : 24 бит
Метод сжатия : Без потерь
Размер потока : 3,02 Гбайт (4%)
Заголовок : original
Язык : English
Default : Нет
Forced : Нет

Текст #1
Идентификатор : 13
Формат : UTF-8
Идентификатор кодека : S_TEXT/UTF8
Идентификатор кодека/Информация : UTF-8 Plain Text
Продолжительность : 1 ч. 43 м.
Битрейт : 76 бит/сек
ElementCount : 956
Размер потока : 58,2 Кбайт (0%)
Заголовок : full
Язык : Russian
Default : Нет
Forced : Нет

Текст #2
Идентификатор : 14
Формат : UTF-8
Идентификатор кодека : S_TEXT/UTF8
Идентификатор кодека/Информация : UTF-8 Plain Text
Продолжительность : 1 ч. 42 м.
Битрейт : 41 бит/сек
ElementCount : 1118
Размер потока : 31,0 Кбайт (0%)
Заголовок : full
Язык : English
Default : Нет
Forced : Нет

Меню
00:00:00.000 : en:Chapter 01
00:08:11.750 : en:Chapter 02
00:18:44.500 : en:Chapter 03
00:26:06.791 : en:Chapter 04
00:32:52.791 : en:Chapter 05
00:40:58.291 : en:Chapter 06
00:54:47.791 : en:Chapter 07
01:06:00.791 : en:Chapter 08
01:15:18.958 : en:Chapter 09
01:23:07.708 : en:Chapter 10
01:36:07.708 : en:Chapter 11
01:44:56.916 : en:Chapter 12




Скачать Тюряга через торрент http://img12.lostpic.net/2018/03/27/b73097dab159e06fa44967fed8dcafc1.jpg Скачать, смотреть онлайн Тюряга бесплантно в хорошем качестве Описание: Свободолюбивый Фрэнк Леоне, борец за справедливость, оказавшийся в тюрьме, уверен, что через несколько месяцев покинет ее стены. ... 9.3 10 4
Торрент: Зарегистрирован [2019-10-03 10:50] · скачан: 5 раз
Статус: √ проверено
Размер: 68.63 GB
Как cкачать? Как скачать Тюряга через торрент | UTorrent

% Раздел Тема Автор DL S | L
Фильмы [HD 720p, 1080p] (Хороший звук DUB, MVO) [ 16.39 GB ] Тюряга / Взаперти / Lock Up | MVO | 1080p Леонид Ильич Скачать
1 | 0

28-11-2019 20:33  


Отключить вcю реклaмy на сайте, в т.ч. и в плеере онлайн просмотра!

19-12-2019 06:30 Тюряга Скачать торрент  

пожалуйста встаньте на раздачу



    Дорогой пользователь! Огромная просьба, поблагодарите релизера, оцените раздачу и оставьте свои комментарий, если Вы скачали Тюряга через торрент бесплатно!!
    Комментировать посты могут только пользователи прошедшие не сложную регистрацию
    Показать сообщения:    


    Тюряга через торрент
    Скачать бесплатно Тюряга
    Тюряга скачать торрент
    Тюряга смотреть онлайн
    Cкачать фильм Тюряга бесплатно
    Тюряга скачать торрент в хорошем качестве
    Тюряга смотреть онлайн бесплатно в хорошем качестве
    Вы не можете начинать темы
    Вы не можете отвечать на сообщения
    Вы не можете редактировать свои сообщения
    Вы не можете удалять свои сообщения
    Вы не можете голосовать в опросах
    Вы не можете прикреплять файлы к сообщениям
    Вы можете скачивать файлы
    Тюряга / Взаперти / Lock Up [1989, боевик, драма, криминал, UHD BDRemux 2160p] MVO+3xDVO+5xAVO смотреть онлайн, скачать торрент picoco.icu