Достать ножи: Стеклянная луковица

MVO

Добыча

Дубляж

Уэнсдэй

1 сезон

Тор

Дубляж

13 клиническая

1 сезон

Жестокая ночь

MVO

Одни из нас

1 сезон

Deluxe

pack

Рекомендуем

30

Пиратка

ВАЖНО

ВАЖНО

Ghostwire

Пиратка

jed

RePack

nioh2

RePack

RDR2

RePack

NEED FOR SPEED™ PAYBACK

RePack

скачать торрент

Кинопоиск HD

Острые козырьки 6 сезон

6 сезон

FAR CRY 6

RePack

скачать торрент

Лицензия

скачать торрент

MVO

1

1 сезон

скачать торрент

1 сезон

скачать торрент

Лицензия

  

Добро пожаловать в Zомбилэнд / Zombieland (Рубен Фляйшер) [2009, Боевик, комедия, ужасы, UHD BDRip 2160p] [SDR] Дубляж (rus, ukr) [Лицензия]

Добро пожаловать в Zомбилэнд через торрент piratbit.org

Размер: 23.05 GB | Добавлен: 3 года 4 мес. назад | Торрент скачан:76 раз
Смотреть онлайн | Скачать | Поддержите нас   

03-10-2019 17:28 Добро пожаловать в Zомбилэнд Скачать торрент  

Добро пожаловать в Zомбилэнд / Zombieland
Год выпуска: 2009
Страна: США
Жанр: Боевик, комедия, ужасы
Продолжительность: 01:27:42
Перевод: Дублированный | Лицензия
Субтитры: Русские (forced, full), украинские (forced, full), английские (ful, SDH...)

Режиссер: Рубен Фляйшер

rating

В ролях:

Джесси Айзенберг (Columbus), Вуди Харрельсон (Tallahassee), Эмма Стоун (Wichita), Эбигейл Бреслин (Little Rock), Билл Мюррей (Bill Murray), Эмбер Хёрд (406), Дерек Граф (Clown Zombie), Aquavian Abel (Extra, в титрах не указан), Сизар Агирр (Customer at the Pump, в титрах не указан), Джейкоб Дж. Экинс (Banjo Zombie, в титрах не указан), Хантер Элдридж (Best Man, в титрах не указан), Элль Александр (Zombie Meter Maid, в титрах не указана)
Описание: После того, как США были разорены в результате нашествия зомби, от населения остаётся небольшая группа выживших, которая скитается по стране от побережья к побережью, сражаясь с живыми мертвецами. Однажды они останавливаются в парке развлечений, надеясь на то, что там они будут в безопасности.

Качество: UHD BDRip 2160p
Формат: MKV

Видео: HEVC SDR, 32.5 Мбит/с, 3840x1606, 23.976 кадр/с, 10 Бит
Аудио#1: AC3, 6 ch, 640 Kbps - Русский (Дубляж, Лицензия)_(Blu-Ray)
Аудио#2: AC3, 6 ch, 640 Kbps - Украинский (Дубляж, Лицензия)_(Blu-Ray)
Аудио#3: TrueHD, 8 ch, 3096 Kbps - Английский
Аудио#4: AC3, 6 ch, 640 Kbps - Английский
скриншот  скриншот  скриншот  

скриншот  скриншот  скриншот  

Общее
Уникальный идентификатор : 231106599310082926010977729295766321846 (0xADDD83122619848CBB7922EB534CFAB6)
Полное имя : D:\Zombieland.2009.2160p.BDRip.2160p.SDR.HEVC.x265.10bit.Master5.mkv
Формат : Matroska
Версия формата : Version 4
Размер файла : 23,1 Гбайт
Продолжительность : 1 ч. 27 м.
Режим общего битрейта : Переменный
Общий поток : 37,6 Мбит/сек
Название фильма : Zombieland.2009.2160p.BDRip.2160p.SDR.HEVC.x265.10bit.Master5
Дата кодирования : UTC 2019-10-03 16:25:08
Программа кодирования : mkvmerge v7.9.0 ('Birds') 64bit
Библиотека кодирования : libebml v1.3.1 + libmatroska v1.4.2
Обложка : Yes
Attachments : small_cover.jpg / small_cover_land.jpg / cover.jpg / cover_land.jpg

Видео
Идентификатор : 1
Формат : HEVC
Формат/Информация : High Efficiency Video Coding
Профиль формата : Main 10@L5.1@High
Идентификатор кодека : V_MPEGH/ISO/HEVC
Продолжительность : 1 ч. 27 м.
Битрейт : 32,5 Мбит/сек
Ширина : 3840 пикселей
Высота : 1606 пикселей
Соотношение сторон : 2,40:1
Режим частоты кадров : Постоянный
Частота кадров : 23,976 (24000/1001) кадра/сек
Цветовое пространство : YUV
Субдискретизация насыщенности : 4:2:0
Битовая глубина : 10 бит
Бит/(Пиксели*Кадры) : 0.220
Размер потока : 19,9 Гбайт (86%)
Заголовок : Zombieland.2009.2160p.BDRip.2160p.SDR.HEVC.x265.10bit.Master5
Библиотека кодирования : x265 3.0+1-ed72af837053:[Windows][GCC 8.2.0][64 bit] 10bit
Настройки программы : cpuid=1111039 / frame-threads=16 / numa-pools=44,44 / wpp / no-pmode / no-pme / no-psnr / no-ssim / log-level=2 / input-csp=1 / input-res=3840x1606 / interlace=0 / total-frames=126168 / level-idc=51 / high-tier=1 / uhd-bd=0 / ref=3 / no-allow-non-conformance / repeat-headers / annexb / aud / hrd / info / hash=0 / no-temporal-layers / no-open-gop / min-keyint=1 / keyint=24 / gop-lookahead=0 / bframes=4 / b-adapt=2 / b-pyramid / bframe-bias=0 / rc-lookahead=25 / lookahead-slices=4 / scenecut=40 / radl=0 / no-splice / no-intra-refresh / ctu=64 / min-cu-size=8 / no-rect / no-amp / max-tu-size=32 / tu-inter-depth=1 / tu-intra-depth=1 / limit-tu=0 / rdoq-level=0 / dynamic-rd=0.00 / no-ssim-rd / signhide / no-tskip / nr-intra=0 / nr-inter=0 / no-constrained-intra / strong-intra-smoothing / max-merge=2 / limit-refs=3 / no-limit-modes / me=1 / subme=2 / merange=57 / temporal-mvp / weightp / no-weightb / no-analyze-src-pics / deblock=0:0 / no-sao / no-sao-non-deblock / rd=3 / no-early-skip / rskip / no-fast-intra / no-tskip-fast / no-cu-lossless / no-b-intra / no-splitrd-skip / rdpenalty=0 / psy-rd=2.00 / psy-rdoq=0.00 / no-rd-refine / no-lossless / cbqpoffs=0 / crqpoffs=0 / rc=crf / crf=16.0 / qcomp=0.60 / qpstep=4 / stats-write=0 / stats-read=0 / vbv-maxrate=160000 / vbv-bufsize=160000 / vbv-init=0.9 / crf-max=0.0 / crf-min=0.0 / ipratio=1.40 / pbratio=1.30 / aq-mode=1 / aq-strength=1.00 / cutree / zone-count=0 / no-strict-cbr / qg-size=32 / no-rc-grain / qpmax=69 / qpmin=0 / no-const-vbv / sar=1 / overscan=0 / videoformat=5 / range=0 / colorprim=2 / transfer=2 / colormatrix=2 / chromaloc=0 / display-window=0 / max-cll=0,0 / min-luma=0 / max-luma=1023 / log2-max-poc-lsb=8 / vui-timing-info / vui-hrd-info / slices=1 / opt-qp-pps / opt-ref-list-length-pps / no-multi-pass-opt-rps / scenecut-bias=0.05 / no-opt-cu-delta-qp / no-aq-motion / no-hdr / no-hdr-opt / no-dhdr10-opt / no-idr-recovery-sei / analysis-reuse-level=5 / scale-factor=0 / refine-intra=0 / refine-inter=0 / refine-mv=0 / refine-ctu-distortion=0 / no-limit-sao / ctu-info=0 / no-lowpass-dct / refine-analysis-type=0 / copy-pic=1 / max-ausize-factor=1.0 / no-dynamic-refine / no-single-sei / no-hevc-aq / qp-adaptation-range=1.00
Default : Да
Forced : Нет

Аудио #1
Идентификатор : 2
Формат : AC-3
Формат/Информация : Audio Coding 3
Коммерческое название : Dolby Digital
Идентификатор кодека : A_AC3
Продолжительность : 1 ч. 27 м.
Вид битрейта : Постоянный
Битрейт : 640 Кбит/сек
Каналы : 6 каналов
Channel layout : L R C LFE Ls Rs
Частота : 48,0 КГц
Частота кадров : 31,250 кадров/сек (1536 SPF)
Битовая глубина : 16 бит
Метод сжатия : С потерями
Размер потока : 401 Мбайт (2%)
Язык : Russian
ServiceKind/String : Complete Main
Default : Нет
Forced : Да

Аудио #2
Идентификатор : 3
Формат : AC-3
Формат/Информация : Audio Coding 3
Коммерческое название : Dolby Digital
Идентификатор кодека : A_AC3
Продолжительность : 1 ч. 27 м.
Вид битрейта : Постоянный
Битрейт : 640 Кбит/сек
Каналы : 6 каналов
Channel layout : L R C LFE Ls Rs
Частота : 48,0 КГц
Частота кадров : 31,250 кадров/сек (1536 SPF)
Битовая глубина : 16 бит
Метод сжатия : С потерями
Размер потока : 401 Мбайт (2%)
Язык : Ukrainian
ServiceKind/String : Complete Main
Default : Нет
Forced : Нет

Аудио #3
Идентификатор : 4
Формат : MLP FBA 16-ch
Формат/Информация : Meridian Lossless Packing FBA with 16-channel presentation
Коммерческое название : Dolby TrueHD with Dolby Atmos
Идентификатор кодека : A_TRUEHD
Продолжительность : 1 ч. 27 м.
Вид битрейта : Переменный
Битрейт : 3096 Кбит/сек
Максимальный битрейт : 4956 Кбит/сек
Каналы : 8 каналов
Channel layout : L R C LFE Ls Rs Lb Rb
Частота : 48,0 КГц
Частота кадров : 1200,000 кадров/сек (40 SPF)
Метод сжатия : Без потерь
Размер потока : 1,90 Гбайт (8%)
Язык : English
Default : Нет
Forced : Нет
Number of dynamic objects : 11
Bed channel count : 1 канал
Bed channel configuration : LFE

Аудио #4
Идентификатор : 5
Формат : AC-3
Формат/Информация : Audio Coding 3
Коммерческое название : Dolby Digital
Идентификатор кодека : A_AC3
Продолжительность : 1 ч. 27 м.
Вид битрейта : Постоянный
Битрейт : 640 Кбит/сек
Каналы : 6 каналов
Channel layout : L R C LFE Ls Rs
Частота : 48,0 КГц
Частота кадров : 31,250 кадров/сек (1536 SPF)
Битовая глубина : 16 бит
Метод сжатия : С потерями
Размер потока : 401 Мбайт (2%)
Язык : English
ServiceKind/String : Complete Main
Default : Нет
Forced : Нет

Текст #1
Идентификатор : 6
Формат : PGS
Режим смешивания : zlib
Идентификатор кодека : S_HDMV/PGS
Идентификатор кодека/Информация : Picture based subtitle format used on BDs/HD-DVDs
Продолжительность : 1 ч. 20 м.
Битрейт : 352 бит/сек
ElementCount : 54
Размер потока : 208 Кбайт (0%)
Заголовок : Russian-FORCED-PGS
Язык : Russian
Default : Нет
Forced : Да

Текст #2
Идентификатор : 7
Формат : PGS
Режим смешивания : zlib
Идентификатор кодека : S_HDMV/PGS
Идентификатор кодека/Информация : Picture based subtitle format used on BDs/HD-DVDs
Продолжительность : 1 ч. 26 м.
Битрейт : 12,9 Кбит/сек
ElementCount : 2056
Размер потока : 7,99 Мбайт (0%)
Заголовок : Russian-PGS
Язык : Russian
Default : Нет
Forced : Нет

Текст #3
Идентификатор : 8
Формат : UTF-8
Идентификатор кодека : S_TEXT/UTF8
Идентификатор кодека/Информация : UTF-8 Plain Text
Продолжительность : 1 ч. 26 м.
Битрейт : 48 бит/сек
ElementCount : 885
Размер потока : 30,6 Кбайт (0%)
Заголовок : English-SRT
Язык : English
Default : Нет
Forced : Нет

Текст #4
Идентификатор : 9
Формат : PGS
Режим смешивания : zlib
Идентификатор кодека : S_HDMV/PGS
Идентификатор кодека/Информация : Picture based subtitle format used on BDs/HD-DVDs
Продолжительность : 1 ч. 27 м.
Битрейт : 16,7 Кбит/сек
ElementCount : 2552
Размер потока : 10,4 Мбайт (0%)
Заголовок : English-SDH-PGS
Язык : English
Default : Нет
Forced : Нет

Текст #5
Идентификатор : 10
Формат : PGS
Режим смешивания : zlib
Идентификатор кодека : S_HDMV/PGS
Идентификатор кодека/Информация : Picture based subtitle format used on BDs/HD-DVDs
Продолжительность : 1 ч. 26 м.
Битрейт : 12,7 Кбит/сек
ElementCount : 1783
Размер потока : 7,89 Мбайт (0%)
Заголовок : English-PGS
Язык : English
Default : Нет
Forced : Нет

Текст #6
Идентификатор : 11
Формат : PGS
Режим смешивания : zlib
Идентификатор кодека : S_HDMV/PGS
Идентификатор кодека/Информация : Picture based subtitle format used on BDs/HD-DVDs
Продолжительность : 1 ч. 27 м.
Битрейт : 16,7 Кбит/сек
ElementCount : 2554
Размер потока : 10,4 Мбайт (0%)
Заголовок : English-SDH-PGS
Язык : English
Default : Нет
Forced : Нет

Текст #7
Идентификатор : 12
Формат : PGS
Режим смешивания : zlib
Идентификатор кодека : S_HDMV/PGS
Идентификатор кодека/Информация : Picture based subtitle format used on BDs/HD-DVDs
Продолжительность : 1 ч. 26 м.
Битрейт : 12,7 Кбит/сек
ElementCount : 1785
Размер потока : 7,89 Мбайт (0%)
Заголовок : English-PGS
Язык : English
Default : Нет
Forced : Нет

Текст #8
Идентификатор : 13
Формат : PGS
Режим смешивания : zlib
Идентификатор кодека : S_HDMV/PGS
Идентификатор кодека/Информация : Picture based subtitle format used on BDs/HD-DVDs
Продолжительность : 1 ч. 24 м.
Битрейт : 182 бит/сек
ElementCount : 37
Размер потока : 114 Кбайт (0%)
Заголовок : Ukranian-FORCED-PGS
Язык : Ukrainian
Default : Нет
Forced : Нет

Текст #9
Идентификатор : 14
Формат : PGS
Режим смешивания : zlib
Идентификатор кодека : S_HDMV/PGS
Идентификатор кодека/Информация : Picture based subtitle format used on BDs/HD-DVDs
Продолжительность : 1 ч. 27 м.
Битрейт : 11,1 Кбит/сек
ElementCount : 1872
Размер потока : 6,93 Мбайт (0%)
Заголовок : Ukranian-PGS
Язык : Ukrainian
Default : Нет
Forced : Нет

Меню
00:00:00.000 : en:Chapter 01
00:04:53.543 : en:Chapter 02
00:07:13.516 : en:Chapter 03
00:12:37.673 : en:Chapter 04
00:18:33.654 : en:Chapter 05
00:24:07.237 : en:Chapter 06
00:30:29.035 : en:Chapter 07
00:36:39.071 : en:Chapter 08
00:41:05.838 : en:Chapter 09
00:45:54.418 : en:Chapter 10
00:49:26.171 : en:Chapter 11
00:55:55.935 : en:Chapter 12
01:02:59.275 : en:Chapter 13
01:08:10.795 : en:Chapter 14
01:14:53.739 : en:Chapter 15
01:19:47.157 : en:Chapter 16




Скачать Добро пожаловать в Zомбилэнд через торрент https://b.radikal.ru/b36/1910/f0/386956101f06.png Скачать, смотреть онлайн Добро пожаловать в Zомбилэнд бесплантно в хорошем качестве Описание: После того, как США были разорены в результате нашествия зомби, от населения остаётся небольшая группа выживших, которая ... 10 10 3
Торрент: Зарегистрирован [2019-10-03 17:28] · скачан: 76 раз
Статус: √ проверено
Размер: 23.05 GB
Как cкачать? Как скачать Добро пожаловать в Zомбилэнд через торрент | UTorrent

% Раздел Тема Автор DL S | L
Ultra HD (UHD: 2K, 4K, 8K) [ 13.29 GB ] Добро пожаловать в Zомбилэнд / Zombieland | Лицензия | 2160p sheker187 Скачать
1 | 0
Ultra HD (UHD: 2K, 4K, 8K) [ 36 GB ] Добро пожаловать в Zомбилэнд / Zombieland | Лицензия | 2160p sheker187 Скачать
1 | 0
Ultra HD (UHD: 2K, 4K, 8K) [ 56.3 GB ] Добро пожаловать в Zомбилэнд / Zombieland | Лицензия | 2160p bober100 Скачать
1 | 0
Фильмы (Blu-ray, BD-Remux, HDDVD) [ 18.61 GB ] Добро пожаловать в Zомбилэнд / Zombieland | DUB | BD Remux Ворон Скачать
1 | 0
Видео для КПК и Смартфонов [ 112 MB ] Добро пожаловать в Zомбилэнд / Zombieland | | DVDRip, лицензия BadFriend Скачать
1 | 0
Фильмы 2009 [ 1.46 GB ] Добро пожаловать в Zомбилэнд / Zombieland | | DVDRip tyry999 Скачать
1 | 0

28-11-2019 20:33  


Отключить вcю реклaмy на сайте, в т.ч. и в плеере онлайн просмотра!

    Дорогой пользователь! Огромная просьба, поблагодарите релизера, оцените раздачу и оставьте свои комментарий, если Вы скачали Добро пожаловать в Zомбилэнд через торрент бесплатно!!
    Комментировать посты могут только пользователи прошедшие не сложную регистрацию
    Показать сообщения:    


    Добро пожаловать в Zомбилэнд через торрент
    Скачать бесплатно Добро пожаловать в Zомбилэнд
    Добро пожаловать в Zомбилэнд скачать торрент
    Добро пожаловать в Zомбилэнд смотреть онлайн
    Cкачать фильм Добро пожаловать в Zомбилэнд бесплатно
    Добро пожаловать в Zомбилэнд скачать торрент в хорошем качестве
    Добро пожаловать в Zомбилэнд смотреть онлайн бесплатно в хорошем качестве
    Вы не можете начинать темы
    Вы не можете отвечать на сообщения
    Вы не можете редактировать свои сообщения
    Вы не можете удалять свои сообщения
    Вы не можете голосовать в опросах
    Вы не можете прикреплять файлы к сообщениям
    Вы можете скачивать файлы
    Добро пожаловать в Zомбилэнд / Zombieland [2009, Боевик, комедия, ужасы, UHD BDRip 2160p] [SDR] Дубляж [Лицензия] смотреть онлайн, скачать торрент picoco.icu