Доктор Стрэндж

Лицензия

Добыча

Дубляж

Дом дракона

1 сезон

Тор

Дубляж

В эфире

Дубляж

Там, где раки поют

MVO

Властелин колец

1 сезон

Deluxe

pack

Рекомендуем

30

Пиратка

ВАЖНО

ВАЖНО

Ghostwire

Пиратка

jed

RePack

nioh2

RePack

RDR2

RePack

NEED FOR SPEED™ PAYBACK

RePack

скачать торрент

Кинопоиск HD

Острые козырьки 6 сезон

6 сезон

FAR CRY 6

RePack

скачать торрент

Лицензия

скачать торрент

MVO

1

1 сезон

скачать торрент

1 сезон

скачать торрент

Лицензия

  

Между двумя папоротниками / Between Two Ferns: The Movie (Скотт Окерман) [2019, комедия, WEB-DLRip] DVO [Кубик в кубе]

Между двумя папоротниками через торрент piratbit.org

Размер: 1.46 GB | Добавлен: 3 года 1 мес. назад | Торрент скачан:395 раз
Смотреть онлайн | Скачать   

04-10-2019 01:11 Между двумя папоротниками Скачать торрент  

Между двумя папоротниками / Between Two Ferns: The Movie
Год выпуска: 2019
Страна: США
Жанр: комедия
Продолжительность: 01:22:46
Перевод: Двухголосый закадровый | Кубик в кубе
Субтитры: Русские (форс., полные) - отдельно

Режиссер: Скотт Окерман

rating


В ролях: Зак Галифианакис, Мэттью МакКонахи, Рекха Шанкар, Мо Абул-Зелоф, Гэбриел Гандакер, Фил Хендри, Мэри Шир, Майк Айви, Мэтт Бессер

Описание: Заку Галифианакису придётся отправиться со своей съемочной командой в большое путешествие, чтобы взять интервью у знаменитостей первой величины и восстановить свою репутацию...

Релиз:

Качество: WEB-DLRip
Формат: AVI

Видео: 704x352 (2.00:1), 24.000 fps, XviD build 73 ~2072 kbps avg, 0.35 bit/pixel
Аудио: 48 kHz, AC3 Dolby Digital, 3/2 (L,C,R,l,r) + LFE ch, ~448.00 kbps avg
скриншот  скриншот  скриншот  скриншот  скриншот  

General
Complete name : D:\OlLanDGroup\Between.Two.Ferns.The.Movie.2019.WEB-DLRip.KvK.OlLanDGroup\Between.Two.Ferns.The.Movie.2019.WEB-DLRip.KvK.OlLanDGroup.avi
Format : AVI
Format/Info : Audio Video Interleave
File size : 1.46 GiB
Duration : 1 h 22 min
Overall bit rate : 2 530 kb/s
Writing application : VirtualDubMod 1.5.10.3 | www.virtualdub-fr.org || (build 2550/release)
Writing library : VirtualDubMod build 2550/release

Video
ID : 0
Format : MPEG-4 Visual
Format profile : Advanced Simple@L5
Format settings : BVOP1 / Custom Matrix
Format settings, BVOP : 1
Format settings, QPel : No
Format settings, GMC : No warppoints
Format settings, Matrix : Custom
Codec ID : XVID
Codec ID/Hint : XviD
Duration : 1 h 22 min
Bit rate : 2 072 kb/s
Width : 704 pixels
Height : 352 pixels
Display aspect ratio : 2.000
Frame rate : 24.000 FPS
Color space : YUV
Chroma subsampling : 4:2:0
Bit depth : 8 bits
Scan type : Progressive
Compression mode : Lossy
Bits/(Pixel*Frame) : 0.348
Stream size : 1.20 GiB (82%)
Writing library : XviD 73

Audio
ID : 1
Format : AC-3
Format/Info : Audio Coding 3
Commercial name : Dolby Digital
Codec ID : 2000
Duration : 1 h 22 min
Bit rate mode : Constant
Bit rate : 448 kb/s
Channel(s) : 6 channels
Channel layout : L R C LFE Ls Rs
Sampling rate : 48.0 kHz
Frame rate : 31.250 FPS (1536 SPF)
Bit depth : 16 bits
Compression mode : Lossy
Stream size : 265 MiB (18%)
Alignment : Split accross interleaves
Interleave, duration : 42 ms (1.00 video frame)
Interleave, preload duration : 500 ms
Service kind : Complete Main




Скачать Между двумя папоротниками через торрент http://a.radikal.ru/a42/1910/11/42fa971803a4.jpg Скачать, смотреть онлайн Между двумя папоротниками бесплантно в хорошем качестве Описание: Заку Галифианакису придётся отправиться со своей съемочной командой в большое путешествие, чтобы взять интервью у знаменитостей ... 9.6 10 7
Торрент: Зарегистрирован [2019-10-04 01:11] · скачан: 395 раз
Статус: √ проверено
Размер: 1.46 GB
Как cкачать? Как скачать Между двумя папоротниками через торрент | UTorrent

% Раздел Тема Автор DL S | L
Фильмы (WEB-DL 720p, 1080p) [ 3.43 GB ] Между двумя папоротниками / Between Two Ferns: The Movie | | 1080p bober100 Скачать
1 | 0
Фильмы (WEB-DL 720p, 1080p) [ 2.29 GB ] Между двумя папоротниками / Between Two Ferns: The Movie | HDRezka Studio | 720p bober100 Скачать
1 | 0



Последний раз редактировалось: bober100 (2019-10-04 01:56), всего редактировалось 1 раз

28-11-2019 20:33  


Отключить вcю реклaмy на сайте, в т.ч. и в плеере онлайн просмотра!

04-10-2019 01:27 Между двумя папоротниками Скачать торрент  

Оперативно. Спасибо =)

Всем приятного просмотра.



    Дорогой пользователь! Огромная просьба, поблагодарите релизера, оцените раздачу и оставьте свои комментарий, если Вы скачали Между двумя папоротниками через торрент бесплатно!!
    Комментировать посты могут только пользователи прошедшие не сложную регистрацию
    Показать сообщения:    


    Между двумя папоротниками через торрент
    Скачать бесплатно Между двумя папоротниками
    Между двумя папоротниками скачать торрент
    Между двумя папоротниками смотреть онлайн
    Cкачать фильм Между двумя папоротниками бесплатно
    Между двумя папоротниками скачать торрент в хорошем качестве
    Между двумя папоротниками смотреть онлайн бесплатно в хорошем качестве
    Вы не можете начинать темы
    Вы не можете отвечать на сообщения
    Вы не можете редактировать свои сообщения
    Вы не можете удалять свои сообщения
    Вы не можете голосовать в опросах
    Вы не можете прикреплять файлы к сообщениям
    Вы можете скачивать файлы
    Между двумя папоротниками / Between Two Ferns: The Movie [2019, комедия, WEB-DLRip] DVO [Кубик в кубе] смотреть онлайн, скачать торрент picoco.icu