новый адрес
Ссылка на приватное зеркало всего за 1$. Внимание количество ограничено!!!

iTunes

1+1

iTunes

мы

WEB-DL

1

iTunes

Чернобыль

iTunes

Ральф против интернета

Лицензия

ПШазам

Лицензия

Оно 2

Лицензия

30
pack

Вам бонус

ВАЖНО

!!Акция!!

Alien_RageХит недели

RePack

Resident Evil 21

ИГРА 18+

pack

RePack

jed

!!Акция!!

Alien_Rage

RePack

fifa19

RePack

Assassins Creed: Odyssey

RePack

NEED FOR SPEED™ PAYBACK

3 сезон

9 сезон

Бесстыжие 9 сезон

Все сериалы

все сериалы на PB.wtf

RePack

FAR CRY 5
Ребята, катастрофически не хватает 1900р. для оплаты серверов за Октябрь (всвязи с блокировками трафик упал в 3 раза), 1-2р., выручайте.
  

Крёстный отец Гарлема / Godfather of Harlem / Сезон: 1 / Серии: 1-7 из 10 (Джон Ридли) [2019, Драма, криминал, WEB-DL 720p] [MVO] (NewStudio) piratbit.org

Крёстный отец Гарлема через торрент piratbit.org

Качают: 2 [ 0 KB/s ]
Размер: 11.93 GB | Добавлен: 2 д. 4 ч. назад | Торрент скачан:2 раза
Скачать  

06-10-2019 10:49 Крёстный отец Гарлема Скачать торрент  

Крёстный отец Гарлема | Godfather of Harlem
«***»

Производство: США
Год выпуска: 2019
Жанр: драма, криминал
Продолжительность: ~ 00:59:00 серия
Премьера (мир): 29 сентября 2019
Перевод: Профессиональный (многоголосый закадровый) NewStudio
Режиссёр: Джон Ридли
В ролях: Форест Уитакер, Люси Фрай, Деми Синглтон, Винсент Д’Онофрио, Джанкарло Эспозито, Ильфенеш Хадера, Келвин Харрисон, Эрик Ларей Харви, Кэтрин Нардуччи, Пол Сорвино
Описание:
Действие сериала разворачивается в Нью-Йорке в 1960-е годы. Криминальный авторитет Эллсуорт «Бампи» Джонсон возвращается после десятилетней отсидки и ввязывается в войну с итальянской мафией, чтобы вернуть себе контроль над родными улицами Гарлема.
«Крестный отец Гарлема» — это приквел криминальной драмы Ридли Скотта «Гангстер» (2007), которая рассказывает о Фрэнке Лукасе — водителе Бампи Джонсона. События сериала разворачивается за пять лет до событий фильма.


Качество видео: WEBDL 720p
Формат: MKV
Видео: AVC, 1280 x 720 (1.778), 23.976 fps, ~3519 kbps
Аудио Rus: AC-3, 48 kHz, 6 ch, 384 kbps |NewStudio|
Аудио Eng: E-AC-3, 48 kHz, 6 ch, 640 kbps |Original|
Субтитры: Eng
Реклама: Отсутствует

Общее
Уникальный идентификатор : 170187978299172926936290053991874597451 (0x80090329E6AF3E2358C68DCA8FBE924B)
Полное имя : E:\_Сериалы\_Сериалы\Крестный отец Гарлема\Godfather.of.Harlem.s01.WEBDL.720p.NewStudio\Godfather.of.Harlem.s01e01.WEBDL.720p.NewStudio.mkv
Формат : Matroska
Версия формата : Version 4
Размер файла : 1,89 Гбайт
Продолжительность : 59 м. 32 с.
Общий поток : 4545 Кбит/сек
Дата кодирования : UTC 2019-10-06 09:55:29
Программа кодирования : mkvmerge v37.0.0 ('Leave It') 64-bit
Библиотека кодирования : libebml v1.3.9 + libmatroska v1.5.2

Видео
Идентификатор : 1
Формат : AVC
Формат/Информация : Advanced Video Codec
Профиль формата : High@L3.1
Настройки формата : CABAC / 4 Ref Frames
Параметр CABAC формата : Да
Параметр RefFrames формата : 4 кадра
Идентификатор кодека : V_MPEG4/ISO/AVC
Продолжительность : 59 м. 31 с.
Вид битрейта : Постоянный
Битрейт : 3519 Кбит/сек
Номинальный битрейт : 6000 Кбит/сек
Ширина : 1280 пикселей
Высота : 720 пикселей
Соотношение сторон : 16:9
Режим частоты кадров : Постоянный
Частота кадров : 23,976 (24000/1001) кадра/сек
Цветовое пространство : YUV
Субдискретизация насыщенности : 4:2:0
Битовая глубина : 8 бит
Тип развёртки : Прогрессивная
Бит/(Пиксели*Кадры) : 0.159
Размер потока : 1,46 Гбайт (77%)
Язык : English
Default : Да
Forced : Нет
Цветовой диапазон : Limited
Основные цвета : BT.709
Характеристики трансфера : BT.709
Коэффициенты матрицы : BT.709

Аудио #1
Идентификатор : 2
Формат : AC-3
Формат/Информация : Audio Coding 3
Коммерческое название : Dolby Digital
Идентификатор кодека : A_AC3
Продолжительность : 59 м. 32 с.
Вид битрейта : Постоянный
Битрейт : 384 Кбит/сек
Каналы : 6 каналов
ChannelLayout : L R C LFE Ls Rs
Частота : 48,0 КГц
Частота кадров : 31,250 кадров/сек (1536 SPF)
Метод сжатия : С потерями
Размер потока : 164 Мбайт (8%)
Язык : Russian
ServiceKind/String : Complete Main
Default : Да
Forced : Нет

Аудио #2
Идентификатор : 3
Формат : E-AC-3
Формат/Информация : Enhanced AC-3
Коммерческое название : Dolby Digital Plus
Идентификатор кодека : A_EAC3
Продолжительность : 59 м. 32 с.
Вид битрейта : Постоянный
Битрейт : 640 Кбит/сек
Каналы : 6 каналов
ChannelLayout : L R C LFE Ls Rs
Частота : 48,0 КГц
Частота кадров : 31,250 кадров/сек (1536 SPF)
Метод сжатия : С потерями
Размер потока : 273 Мбайт (14%)
Язык : English
ServiceKind/String : Complete Main
Default : Нет
Forced : Нет

Текст
Идентификатор : 4
Формат : UTF-8
Идентификатор кодека : S_TEXT/UTF8
Идентификатор кодека/Информация : UTF-8 Plain Text
Продолжительность : 59 м. 14 с.
Битрейт : 75 бит/сек
ElementCount : 1187
Размер потока : 32,7 Кбайт (0%)
Язык : English
Default : Нет
Forced : Нет

скриншот  скриншот  скриншот  

Раздача ведётся путём добавления новых серий; при каждом добавлении создаётся новый торрент.
Чтобы начать докачку новой серии, пользователям необходимо сделать следующее:
1. остановить скачивание,
2. удалить старый торрент у себя из клиента (старые серии удалять не надо),
3. скачать новый торрент и запустить его у себя в клиенте вместо старого, при этом указать клиенту путь в старую папку, куда и должно происходить скачивание новых серий.

Ваш клиент при этом должен произвести хеширование (проверку) старой папки (если не производит сам - помогите ему сделать это), и будет докачивать только те серии которых у вас ещё нет. Старые серии при этом не удаляются, а продолжают раздаваться!

Eсли вы уже удалили старые серии, то предотвратить повторную закачку старых серий можно, отжав галочку в соответствующих местах при запуске нового торрента. По возможности, желательно не удалять старые серии как можно дольше, чтобы релизёр не столько продолжал раздавать старые серии, а смог сконцентрироваться на новых.

Совет для тех, кто не хочет ждать перехеширования:
Создайте ещё одну папку рядом с папкой сериала (рядом, а не в ней!!!). Каждую новую серию после удачной загрузки копируйте в новую папку так чтобы ваша основная папка всегда была пуста. Когда ваш новый торрент предложит вам закачать все файлы, выберете только последнюю. Для сидирования же укажите адрес новой папки.

Как закачать отдельный файл из торрента или докачать ранее пропущенные файлы торрента!

1. Открыть торрент
2. Снять галки с тех файлов торрента, которые мы не хотим закачивать. Оставляем только на нужных нам файлах (файле).
3. Нажать О.К.

В клиенте utorrent

Инструкция

1) Открыть торрент


2) Снять галки с тех файлов торрента, которые мы не хотим закачивать:

* либо вручную, снимая с каждого файла галку( скрин №1)
* либо, нажав кнопку "Снять метки (Select None)", сняв сразу со всех файлов(скрин №2)
№1

№2

Оставляем только на нужных нам файлах (файле).

3)Нажать О.К

Приятного просмотра!!!piratbit.org



Скачать Крёстный отец Гарлема через торрент https://i5.imageban.ru/out/2019/10/06/24a864b8e3aab3f742c1a476b88af22e.png Скачать фильм Крёстный отец Гарлема через торрент бесплантно в хорошем качестве Описание:Действие сериала разворачивается в Нью-Йорке в 1960-е годы. Криминальный авторитет Эллсуорт «Бампи» Джонсон возвращается после ... 8.2 10 5
Торрент: Зарегистрирован [2019-12-04 18:35] · скачан: 2 раз
Статус: √ проверено
Размер: 11.93 GB
Как cкачать? Как скачать Крёстный отец Гарлема через торрент | qTorrent

% Раздел Тема Автор DL S | L
Зарубежные сериалы [ 5.28 GB ] Крёстный отец Гарлема / Godfather of Harlem / Сезон: 1 / Серии: 1-7 из 10 [2019 WEB-DLRip] [MVO] killermax2013 Скачать
1 | 1


Последний раз редактировалось: killermax2013 (2019-12-04 18:35), всего редактировалось 4 раз(а)

28-11-2019 20:33  

Отключить всю рекламу на сайте

06-10-2019 14:16 Крёстный отец Гарлема Скачать торрент  

ну и как сериал то?piratbit.org
Kkillermax2013 писал(а):

крутой сериал



28-10-2019 03:34 Крёстный отец Гарлема Скачать торрент  

Гангстер ( Hoodlum ) 1997 норм филдьм про этго Бампи Джонсона .piratbit.org



    Дорогой пользователь! Огромная просьба, поблагодарите релизера, оцените раздачу и оставьте свои комментарий, если Вы скачали Крёстный отец Гарлема через торрент бесплатно! Внесите свою лепту в развитие PiratBit!
    Комментировать посты могут только пользователи прошедшие не сложную регистрацию
    Показать сообщения:    

    Крёстный отец Гарлема через торрент
    Скачать бесплатно Крёстный отец Гарлема
    Крёстный отец Гарлема скачать торрент
    Крёстный отец Гарлема смотреть онлайн
    Cкачать фильм Крёстный отец Гарлема бесплатно
    Крёстный отец Гарлема скачать торрент в хорошем качестве
    Крёстный отец Гарлема смотреть онлайн бесплатно в хорошем качестве


    Вы не можете начинать темы
    Вы не можете отвечать на сообщения
    Вы не можете редактировать свои сообщения
    Вы не можете удалять свои сообщения
    Вы не можете голосовать в опросах
    Вы не можете прикреплять файлы к сообщениям
    Вы можете скачивать файлы