Доктор Стрэндж

Лицензия

Добыча

Дубляж

Уэнсдэй

1 сезон

Тор

Дубляж

В эфире

Дубляж

Там, где раки поют

MVO

Властелин колец

1 сезон

Deluxe

pack

Рекомендуем

30

Пиратка

ВАЖНО

ВАЖНО

Ghostwire

Пиратка

jed

RePack

nioh2

RePack

RDR2

RePack

NEED FOR SPEED™ PAYBACK

RePack

скачать торрент

Кинопоиск HD

Острые козырьки 6 сезон

6 сезон

FAR CRY 6

RePack

скачать торрент

Лицензия

скачать торрент

MVO

1

1 сезон

скачать торрент

1 сезон

скачать торрент

Лицензия

  

Девушка с плеером / The Hidden Track (Брайан Лай) [2019, Драма, WEB-DLRip-AVC] Дубляж [Line]

Девушка с плеером через торрент piratbit.org

Размер: 1.85 GB | Добавлен: 3 года 2 мес. назад | Торрент скачан:111 раз
Смотреть онлайн | Скачать   

06-10-2019 13:47 Девушка с плеером Скачать торрент  

Девушка с плеером / The Hidden Track
Год выпуска: 2019
Страна: Россия, Великобритания
Жанр: Драма
Продолжительность: 01:38:38
Перевод: Дублированный | Line
Субтитры: отсутствуют

Режиссер: Брайан Лай

rating семпл


В ролях: Екатерина Шмакова, Алан Эмрис Приле, Тим Айткен-Смит, Джек Парр, Люк Хобсон, Дуги Вуд, Остин Кэйли, Кэтлин Худ, Алекс Рейнольдс, Настя Зиновьева

Описание: Русская девушка Ника приезжает в Лондон, где несколько лет назад бесследно исчезла ее сестра Джен. Разместив на страничке в соцсети сообщение адресованное пропавшей сестре, Ника получает смс от неизвестного абонента. Это смс даёт ей подсказку, благодаря которой героиня берётся за собственное расследование. И начинает его в месте, где сегодня ищут и находят все и всех — в интернете, в социальных сетях. Новые зацепки приводят девушку в небольшой городок на окраине Лондона, где жила и работала сестра. Оказывается, она была девушкой солиста местной рок-группы, которая стала популярной сразу после исчезновения Джен. Рассказы лучших подруг сестры не совпадают в деталях, подробности жизни Джен кажутся странными, а рок-музыканты вызывают подозрения. Не расставаясь с любимым плеером, Ника ввязывается в игру, которая может стоить ей жизни, не подозревая, что ответы на вопросы можно найти именно в плеере.

Качество: WEB-DLRip-AVC
Формат: MKV

Видео: 1024х426 (16:9), 24 fps, AVC MPEG-4 (x264), High@L4.1 2500 kbps avg, 0.239 bit/pixel
Аудио: 48 kHz, AC3, 2 ch, 192 kbps avg
скриншот  скриншот  скриншот  скриншот  

Общее
Уникальный идентификатор : 252942662581316914443743970664726111073 (0xBE4AFC1C5DD78482A8028092FF9BA361)
Полное имя : G:The.Hidden.Track.2019.WEB-DLRip.(AVC).ExKinoRay.mkv
Формат : Matroska
Версия формата : Version 4 / Version 2
Размер файла : 1,85 Гбайт
Продолжительность : 1 ч. 38 м.
Общий поток : 2691 Кбит/сек
Дата кодирования : UTC 2019-10-05 23:43:08
Программа кодирования : mkvmerge v6.9.1 ('Blue Panther') 64bit built on Apr 18 2014 18:23:38
Библиотека кодирования : libebml v1.3.0 + libmatroska v1.4.1

Видео
Идентификатор : 1
Формат : AVC
Формат/Информация : Advanced Video Codec
Профиль формата : High@L4.1
Настройки формата : CABAC / 10 Ref Frames
Параметр CABAC формата : Да
Параметр RefFrames формата : 10 кадров
Идентификатор кодека : V_MPEG4/ISO/AVC
Продолжительность : 1 ч. 38 м.
Битрейт : 2500 Кбит/сек
Ширина : 1024 пикселя
Высота : 426 пикселей
Соотношение сторон : 2,40:1
Режим частоты кадров : Постоянный
Частота кадров : 23,976 (24000/1001) кадра/сек
Цветовое пространство : YUV
Субдискретизация насыщенности : 4:2:0
Битовая глубина : 8 бит
Тип развёртки : Прогрессивная
Бит/(Пиксели*Кадры) : 0.239
Размер потока : 1,68 Гбайт (91%)
Библиотека кодирования : x264 core 146 r2538 121396c
Настройки программы : cabac=1 / ref=10 / deblock=1:-3:-3 / analyse=0x3:0x113 / me=umh / subme=11 / psy=1 / psy_rd=1.00:0.20 / mixed_ref=1 / me_range=32 / chroma_me=1 / trellis=2 / 8x8dct=1 / cqm=0 / deadzone=21,11 / fast_pskip=1 / chroma_qp_offset=-3 / threads=24 / lookahead_threads=6 / sliced_threads=0 / nr=0 / decimate=0 / interlaced=0 / bluray_compat=0 / constrained_intra=0 / bframes=12 / b_pyramid=2 / b_adapt=2 / b_bias=0 / direct=3 / weightb=1 / open_gop=0 / weightp=2 / keyint=250 / keyint_min=23 / scenecut=40 / intra_refresh=0 / rc_lookahead=60 / rc=2pass / mbtree=1 / bitrate=2500 / ratetol=1.0 / qcomp=0.60 / qpmin=0 / qpmax=69 / qpstep=4 / cplxblur=20.0 / qblur=0.5 / vbv_maxrate=14000 / vbv_bufsize=14000 / nal_hrd=none / filler=0 / ip_ratio=1.40 / aq=3:1.40
Default : Да
Forced : Нет
Цветовой диапазон : Limited
Основные цвета : BT.709
Характеристики трансфера : BT.709
Коэффициенты матрицы : BT.709

Аудио
Идентификатор : 2
Формат : AC-3
Формат/Информация : Audio Coding 3
Идентификатор кодека : A_AC3
Продолжительность : 1 ч. 38 м.
Вид битрейта : Постоянный
Битрейт : 192 Кбит/сек
Каналы : 2 канала
Расположение каналов : Front: L R
Частота : 48,0 КГц
Частота кадров : 31,250 кадров/сек (1536 SPF)
Битовая глубина : 16 бит
Метод сжатия : С потерями
Размер потока : 135 Мбайт (7%)
Язык : Russian
Default : Да
Forced : Нет




Скачать Девушка с плеером через торрент https://d.radikal.ru/d17/1909/0f/761246f391c3.jpg Скачать, смотреть онлайн Девушка с плеером бесплантно в хорошем качестве Описание: Русская девушка Ника приезжает в Лондон, где несколько лет назад бесследно исчезла ее сестра Джен. Разместив на страничке в ... 8.2 10 5
Торрент: Зарегистрирован [2019-10-06 13:47] · скачан: 111 раз
Статус: T временная
Размер: 1.85 GB
Как cкачать? Как скачать Девушка с плеером через торрент | UTorrent

% Раздел Тема Автор DL S | L
T Фильмы (WEB-DL 720p, 1080p) [ 4.27 GB ] Девушка с плеером / The Hidden Track | DUB | 1080p bober100 Скачать
1 | 0
T Фильмы (WEB-DL 720p, 1080p) [ 2.54 GB ] Девушка с плеером / The Hidden Track | DUB | 720p bober100 Скачать
1 | 0
T Фильмы 2019-2020 [DVDrip, WEB-DLRip, HDrip] (DUB, MVO) [ 1.37 GB ] Девушка с плеером / The Hidden Track | DUB | DLRip bober100 Скачать
1 | 0

28-11-2019 20:33  


Отключить вcю реклaмy на сайте, в т.ч. и в плеере онлайн просмотра!

    Дорогой пользователь! Огромная просьба, поблагодарите релизера, оцените раздачу и оставьте свои комментарий, если Вы скачали Девушка с плеером через торрент бесплатно!!
    Комментировать посты могут только пользователи прошедшие не сложную регистрацию
    Показать сообщения:    


    Девушка с плеером через торрент
    Скачать бесплатно Девушка с плеером
    Девушка с плеером скачать торрент
    Девушка с плеером смотреть онлайн
    Cкачать фильм Девушка с плеером бесплатно
    Девушка с плеером скачать торрент в хорошем качестве
    Девушка с плеером смотреть онлайн бесплатно в хорошем качестве
    Вы не можете начинать темы
    Вы не можете отвечать на сообщения
    Вы не можете редактировать свои сообщения
    Вы не можете удалять свои сообщения
    Вы не можете голосовать в опросах
    Вы не можете прикреплять файлы к сообщениям
    Вы можете скачивать файлы
    Девушка с плеером / The Hidden Track [2019, Драма, WEB-DLRip-AVC] Дубляж [Line] смотреть онлайн, скачать торрент picoco.icu