Ссылка на приватное зеркало нашего сайта всего за 1$. Внимание количество ограничено!!!

2 сезон

iTunes

iTunes

1

iTunes

iTunes

iTunes

WEBRip

iTunes

30
pack

Вам бонус

ВАЖНО

!!Акция!!

Alien_RageХит недели

RePack

Horizon Zero Dawn

ИГРА 18+

pack

RePack

jed

!!Акция!!

Alien_Rage

RePack

fifa19

RePack

Assassins Creed: Odyssey

RePack

NEED FOR SPEED™ PAYBACK

4 сезон

9 сезон

Бесстыжие 9 сезон

Все сериалы

все сериалы на PB.wtf

RePack

FAR CRY 5
  

Ходячие мертвецы / The Walking Dead / Сезон: 10 / Серии: 1-15 из 15 (Грег Никотеро, Майкл Е. Сатраземис, Эрнест Р. Дикерсон) [2019, Ужасы, фантастика, триллер, драма, WEB-DL 1080p] MVO [FOX] piratbit.org

Ходячие мертвецы через торрент piratbit.org

Размер: 40.3 GB | Добавлен: 5 мес. назад | Торрент скачан:22 раза
Скачать  

07-10-2019 18:54 Ходячие мертвецы Скачать торрент  

Ходячие мертвецы | The Walking Dead
Год выпуска: 2019
Страна: США
Жанр: Ужасы, фантастика, триллер, драма
Продолжительность: ~ 00:58:00
Перевод: Профессиональный (многоголосый закадровый) | Нота по заказу телеканала FOX
Субтитры: английские

Режиссёр: Грег Никотеро, Майкл Е. Сатраземис, Эрнест Р. Дикерсон

В ролях: Мелисса МакБрайд, Данай Гурира, Норман Ридус, Райан Хёрст, Джеффри Дин Морган, Надиа Хилкер, Тора Бёрч, Джон Финн, Джерри Таббс, Дэвид Л. Марстон, Энджел Феори, Блейн Керн, Лорен Ридлофф, Линдсли Реджистер, Сидни Парк, Алекс Сгамбати, Кевин Кэрролл, Куондэй Стюарт, Элинор Матсуура, Каллэн МакОлифф, Кэссиди МакКлинси, Ави Нэш, Росс Маркванд, Дэн Фоглер, Джош МакДермитт, Хари Пэйтон, Кенрик Грин, Кристиан Серратос, Керри Кехилл, Купер Эндрюс, Дэвид Моретти, Кэйли Флеминг, Сет Гиллиам, Саманта Мортон, Густаво Гомез

Описание: «Ходячие мертвецы» — постапокалиптическии хоррор, создателем которого выступил номинант на премию «Оскар», режиссер Фрэнк Дарабонт. В основу сюжета сериала положены одноименные комиксы Роберта Киркмана. Их главная идея заключается в том, что зло в той или иной степени присутствует в каждом человеке, и в определенных обстоятельствах любой из нас может стать хладнокровным убийцей. В графических новеллах такими обстоятельствами стали зомби, заполонившие всё вокруг после эпидемии, источник которой неизвестен. Премьера шоу состоялась в 2010 году, и за всё время трансляции «Ходячие мертвецы» сумели не только завоевать сердца миллионов сериаломанов по всему миру, но и собрать более четырёх десятков профессиональных наград. К тому же на данный момент эта зомби-драма является абсолютным рекордсменом по количеству зрителей, которых собирают премьерные эпизоды новых сезонов.

Сюжет: Действие сериала разворачивается в первые месяцы после наступления зомби-апокалипсиса. Помощник шерифа Рик Граймс (Эндрю Линкольн) приходит в себя после длительной комы и понимает, что находится в опустевшей и разоренной больнице совершенно один. За то время, пока он находился без сознания, привычный мир был разрушен страшной эпидемией, о причинах наступления которой никто не знает. По дороге домой, где Рик надеется встретить жену и сына, он натыкается на множество трупов — как лежащих на земле, так и уже оживших. Затем Граймс знакомится со своим соседом Морганом (Ленни Джеймс), который объясняет ему новые правила жизни: не шуметь, не привлекать внимание, а в случае нападения мертвеца сделать все, чтобы его уничтожить. И ни при каких условиях не допускать укусов — жертвы атаки тоже превращаются в ходячих мертвецов. Не найдя дома родных, Рик отправляется в Атланту на поиски семьи. Он еще не знает, что впереди его ждут долгие скитания по уничтоженной стране в компании самых разных людей, для которых он станет лидером и защитником. Более того, никто из группы выживших не подозревает, что ходячие — это еще не самое страшное зло нового мира...



Качество: WEB-DL 1080p
Формат: MKV

Видео: AVC, ~ 5700 kbps, 1920x1080 (16:9), 25,000 fps
Аудио 1: AC3, 48,0 КГц, 2 ch, 192 kbps - Rus
Аудио 2: AC3, 48,0 КГц, 6 ch, 384 kbps - Eng


Реклама: Отсутствует
Общее
Уникальный идентификатор : 184218890019355466852000138656063299541 (0x8A9744856E814A94AAC38AA5B4761FD5)
Полное имя : C:\TWD (Season 10) FOX 1080\The.Walking.Dead.S10E01.1080p.WEB-DL.FOX.mkv
Формат : Matroska
Версия формата : Version 2
Размер файла : 2,19 Гбайт
Продолжительность : 49 м. 26 с.
Общий поток : 6332 Кбит/сек
Дата кодирования : UTC 2019-10-07 20:30:03
Программа кодирования : mkvmerge v7.8.0 ('River Man') 32bit built on Apr 3 2015 12:11:22
Библиотека кодирования : libebml v1.3.1 + libmatroska v1.4.2

Видео
Идентификатор : 1
Формат : AVC
Формат/Информация : Advanced Video Codec
Профиль формата : High@L4
Настройки формата : CABAC / 4 Ref Frames
Параметр CABAC формата : Да
Параметр RefFrames формата : 4 кадра
Идентификатор кодека : V_MPEG4/ISO/AVC
Продолжительность : 49 м. 26 с.
Битрейт : 5630 Кбит/сек
Ширина : 1920 пикселей
Высота : 1080 пикселей
Соотношение сторон : 16:9
Режим частоты кадров : Постоянный
Частота кадров : 25,000 кадров/сек
Цветовое пространство : YUV
Субдискретизация насыщенности : 4:2:0
Битовая глубина : 8 бит
Тип развёртки : Прогрессивная
Бит/(Пиксели*Кадры) : 0.109
Размер потока : 1,94 Гбайт (89%)
Библиотека кодирования : x264 core 158 r2984 3759fcb
Настройки программы : cabac=1 / ref=3 / deblock=1:0:0 / analyse=0x3:0x113 / me=hex / subme=7 / psy=1 / psy_rd=1.00:0.00 / mixed_ref=1 / me_range=16 / chroma_me=1 / trellis=2 / 8x8dct=1 / cqm=0 / deadzone=21,11 / fast_pskip=1 / chroma_qp_offset=-2 / threads=18 / lookahead_threads=3 / sliced_threads=0 / nr=0 / decimate=1 / interlaced=0 / bluray_compat=0 / constrained_intra=0 / bframes=3 / b_pyramid=2 / b_adapt=1 / b_bias=0 / direct=3 / weightb=1 / open_gop=0 / weightp=2 / keyint=250 / keyint_min=23 / scenecut=40 / intra_refresh=0 / rc_lookahead=40 / rc=crf / mbtree=1 / crf=23.0 / qcomp=0.60 / qpmin=0 / qpmax=69 / qpstep=4 / ip_ratio=1.40 / aq=1:1.00
Язык : English
Default : Да
Forced : Нет

Аудио #1
Идентификатор : 2
Формат : AC-3
Формат/Информация : Audio Coding 3
Коммерческое название : Dolby Digital
Идентификатор кодека : A_AC3
Продолжительность : 49 м. 26 с.
Вид битрейта : Постоянный
Битрейт : 192 Кбит/сек
Каналы : 2 канала
ChannelLayout : L R
Частота : 48,0 КГц
Частота кадров : 31,250 кадров/сек (1536 SPF)
Битовая глубина : 16 бит
Метод сжатия : С потерями
Размер потока : 67,9 Мбайт (3%)
Заголовок : FOX
Язык : Russian
ServiceKind/String : Complete Main
Default : Да
Forced : Нет

Аудио #2
Идентификатор : 3
Формат : AC-3
Формат/Информация : Audio Coding 3
Коммерческое название : Dolby Digital
Идентификатор кодека : A_AC3
Продолжительность : 49 м. 26 с.
Вид битрейта : Постоянный
Битрейт : 384 Кбит/сек
Каналы : 6 каналов
ChannelLayout : L R C LFE Ls Rs
Частота : 48,0 КГц
Частота кадров : 31,250 кадров/сек (1536 SPF)
Битовая глубина : 16 бит
Метод сжатия : С потерями
Размер потока : 136 Мбайт (6%)
Язык : English
ServiceKind/String : Complete Main
Default : Нет
Forced : Нет

Текст
Идентификатор : 4
Формат : UTF-8
Идентификатор кодека : S_TEXT/UTF8
Идентификатор кодека/Информация : UTF-8 Plain Text
Язык : English
Default : Нет
Forced : Нет
При каждом добавлении создаётся новый торрент. Чтобы начать докачку новой серии, пользователям необходимо сделать следующее:
- остановить скачивание;
- удалить старый торрент у себя из клиента (старые серии удалять не надо);
- скачать новый торрент и запустить его у себя в клиенте вместо старого, при этом указать клиенту путь в старую папку, куда и должно происходить скачивание новых серий.
piratbit.org



Скачать Ходячие мертвецы через торрент https://funkyimg.com/i/2XAYX.png Скачать фильм Ходячие мертвецы через торрент бесплантно в хорошем качестве Описание: «Ходячие мертвецы» — постапокалиптическии хоррор, создателем которого выступил номинант на премию «Оскар», режиссер Фрэнк ... 10 10 7
Торрент: Зарегистрирован [2020-04-26 10:01] · скачан: 22 раз
Статус: √ проверено
Размер: 40.3 GB
Как cкачать? Как скачать Ходячие мертвецы через торрент | qTorrent

% Раздел Тема Автор DL S | L
Ходячие мертвецы (The Walking Dead) [ 225.23 GB ] Ходячие мертвецы / The Walking Dead / Сезон: 5 / Серии: 1-16 из 16 [2014-2015 зомби постапокалипсис BDRemux 1080p] 2xMVO [LostFilm FOX] sheker187 Скачать
1 | 0
Зарубежные сериалы [ 9.85 GB ] Ходячие мертвецы / The Walking Dead / Сезон: 10 / Серии: 1-15 из 15 [2019 WEB-DLRip] MVO [LostFilm] Эдвард Кенуэй Скачать
5 | 0
Ходячие мертвецы (The Walking Dead) [ 50.17 GB ] Ходячие мертвецы / The Walking Dead / Сезон: 10 / Серии: 1-15 из 15 [2019 WEB-DL 1080p] MVO [Jaskier] bober100 Скачать
1 | 0
Ходячие мертвецы (The Walking Dead) [ 31.14 GB ] Ходячие мертвецы / The Walking Dead / Сезон: 10 / Серии: 1-15 из 15 [2019 WEB-DL 720p] MVO [Jaskier] bober100 Скачать
1 | 0
Ходячие мертвецы (The Walking Dead) [ 8.15 GB ] Ходячие мертвецы / The Walking Dead / Сезон: 10 / Серии: 1-15 из 15 [2019 WEB-DLRip] MVO [Jaskier] bober100 Скачать
2 | 0
Ходячие мертвецы (The Walking Dead) [ 52.66 GB ] Ходячие мертвецы / The Walking Dead / Сезон: 10 / Серия: 1-15 из 15 [2019 WEB-DL 1080p] MVO [LostFilm] bober100 Скачать
1 | 0
Ходячие мертвецы (The Walking Dead) [ 51.28 GB ] Ходячие мертвецы / The Walking Dead / Сезон: 10 / Серии: 1-15 из 15 [2019 WEB-DL 1080p] MVO [TVShows] bober100 Скачать
1 | 0

28-11-2019 20:33  

Отключить всю рекламу на сайте

    Дорогой пользователь! Огромная просьба, поблагодарите релизера, оцените раздачу и оставьте свои комментарий, если Вы скачали Ходячие мертвецы через торрент бесплатно! Внесите свою лепту в развитие PiratBit!
    Комментировать посты могут только пользователи прошедшие не сложную регистрацию
    Показать сообщения:    

    Ходячие мертвецы через торрент
    Скачать бесплатно Ходячие мертвецы
    Ходячие мертвецы скачать торрент
    Ходячие мертвецы смотреть онлайн
    Cкачать фильм Ходячие мертвецы бесплатно
    Ходячие мертвецы скачать торрент в хорошем качестве
    Ходячие мертвецы смотреть онлайн бесплатно в хорошем качестве


    Вы не можете начинать темы
    Вы не можете отвечать на сообщения
    Вы не можете редактировать свои сообщения
    Вы не можете удалять свои сообщения
    Вы не можете голосовать в опросах
    Вы не можете прикреплять файлы к сообщениям
    Вы можете скачивать файлы