Ссылка на приватное зеркало нашего сайта всего за 1$. Внимание количество ограничено!!!

2 сезон

iTunes

iTunes

1

iTunes

iTunes

iTunes

WEBRip

iTunes

30
pack

Вам бонус

ВАЖНО

!!Акция!!

Alien_RageХит недели

RePack

Horizon Zero Dawn

ИГРА 18+

pack

RePack

jed

!!Акция!!

Alien_Rage

RePack

fifa19

RePack

Assassins Creed: Odyssey

RePack

NEED FOR SPEED™ PAYBACK

4 сезон

9 сезон

Бесстыжие 9 сезон

Все сериалы

все сериалы на PB.wtf

RePack

FAR CRY 5
  

Ходячие мертвецы / The Walking Dead / Сезон: 10 / Серии: 1-15 из 15 (Грег Никотеро, Майкл Е. Сатраземис, Эрнест Р. Дикерсон) [2019, ужасы, триллер, драма, WEB-DLRip] MVO [FOX] piratbit.org

Ходячие мертвецы через торрент piratbit.org

Раздают: 3 [ 27 KB/s ]
Размер: 9.62 GB | Добавлен: 4 мес. 27 д. назад | Торрент скачан:62 раза
Скачать  

07-10-2019 19:32 Ходячие мертвецы Скачать торрент  

Ходячие мертвецы / The Walking Dead Год выпуска: 2019
Страна: США
Жанр: ужасы, триллер, драма
Продолжительность: ~ 00:52:00
Перевод: Профессиональный (многоголосый закадровый) | Нота по заказу FOX
Субтитры: Английские (SDH)

Режиссёр: Грег Никотеро, Майкл Е. Сатраземис, Эрнест Р. Дикерсон

В ролях: Мелисса МакБрайд, Данай Гурира, Норман Ридус, Райан Хёрст, Джеффри Дин Морган, Надиа Хилкер, Тора Бёрч, Джон Финн, Джерри Таббс, Дэвид Л. Марстон, Энджел Феори, Блейн Керн, Лорен Ридлофф, Линдсли Реджистер, Сидни Парк, Алекс Сгамбати, Кевин Кэрролл, Куондэй Стюарт, Элинор Матсуура, Каллэн МакОлифф, Кэссиди МакКлинси, Ави Нэш, Росс Маркванд, Дэн Фоглер, Джош МакДермит

Описание: Сериал рассказывает историю жизни семьи шерифа после того, как «зомби» — эпидемия апокалиптических масштабов захлестнула земной шар. Шериф Рик Граймс путешествует со своей семьей и небольшой группой выживших в поисках безопасного места для жизни. Но постоянный страх смерти каждый день приносит тяжелые потери, заставляя героев почувствовать глубины человеческой жестокости. Рик пытается спасти свою семью, и открывает для себя, что всепоглощающий страх тех, кто выжил, может быть опаснее бессмысленных мертвецов, бродящих по земле.



Качество: WEB-DLRip
Формат: AVI

Видео: XviD, 720x400, 23,976 fps, ~ 1600 kbps
Аудио 1: 48 kHz, AC3 2 ch, ~ 192 kbps|Нота|
Аудио 2: 48 kHz, AC3 2 ch, ~ 192 kbps

Реклама: Отсутствует
Format : AVI
Format/Info : Audio Video Interleave
File size : 737 MiB
Duration : 51mn 33s
Overall bit rate : 1 998 Kbps
Movie name : Ходячие мертвецы 10х01: Дороги, которые мы выбираем
Director : Бёдвар (WEB-DLRip 400p)
Writing application : VirtualDubModRus 1.5.10.2 (build 2542/release)
Comment : 07.10.2019

Video
ID : 0
Format : MPEG-4 Visual
Format profile : Advanced Simple@L5
Format settings, BVOP : 1
Format settings, QPel : No
Format settings, GMC : No warppoints
Format settings, Matrix : Default (MPEG)
Codec ID : XVID
Codec ID/Hint : XviD
Duration : 51mn 33s
Bit rate : 1 600 Kbps
Width : 720 pixels
Height : 400 pixels
Display aspect ratio : 16:9
Frame rate : 23.976 (24000/1001) fps
Color space : YUV
Chroma subsampling : 4:2:0
Bit depth : 8 bits
Scan type : Progressive
Compression mode : Lossy
Bits/(Pixel*Frame) : 0.232
Stream size : 590 MiB (80%)
Writing library : XviD 67

Audio #1
ID : 1
Format : AC-3
Format/Info : Audio Coding 3
Mode extension : CM (complete main)
Format settings, Endianness : Big
Codec ID : 2000
Duration : 51mn 33s
Bit rate mode : Constant
Bit rate : 192 Kbps
Channel(s) : 2 channels
Channel positions : Front: L R
Sampling rate : 48.0 KHz
Frame rate : 31.250 fps (1536 spf)
Compression mode : Lossy
Stream size : 70.8 MiB (10%)
Alignment : Split accross interleaves
Interleave, duration : 42 ms (1.00 video frame)
Interleave, preload duratio : 500 ms

Audio #2
ID : 2
Format : AC-3
Format/Info : Audio Coding 3
Mode extension : CM (complete main)
Format settings, Endianness : Big
Codec ID : 2000
Duration : 51mn 33s
Bit rate mode : Constant
Bit rate : 192 Kbps
Channel(s) : 2 channels
Channel positions : Front: L R
Sampling rate : 48.0 KHz
Frame rate : 31.250 fps (1536 spf)
Compression mode : Lossy
Stream size : 70.8 MiB (10%)
Alignment : Split accross interleaves
Interleave, duration : 42 ms (1.00 video frame)
Interleave, preload duratio : 500 ms
скриншот  скриншот  скриншот  скриншот  
Внимание! Раздача ведётся путём добавления новых серий; при каждом добавлении создаётся новый торрент. Чтобы начать докачку новой серии,пользователям необходимо сделать следующее:
(1) остановить скачивание,
(2) удалить старый торрент у себя из клиента (старые серии удалять не надо),
(3) скачать новый торрент и запустить его у себя в клиенте вместо старого, при этом указать клиенту путь в старую папку куда и должнопроисходить скачивание новых серий.

Ваш клиент при этом должен произвести хеширование (проверку) старой папки (если не производит сам - помогите ему сделать это), и будет докачивать только те серии
которых у вас ещё нет. Старые серии при этом не удаляются, а продолжают раздаваться!

Eсли вы уже удалили старые серии, то предотвратить повторную закачку старых серий можно, отжав галочку в соответствующих местах при запуске нового торрента.

По возможности, желательно не удалять старые серии как можно дольше чтобы релизёр не столько продолжал раздавать старые серии, а смог сконцентрироваться на новых.
piratbit.org



Скачать Ходячие мертвецы через торрент https://i90.fastpic.ru/big/2019/1007/b0/62690021754c1e494bd74197c0c000b0.jpg Скачать фильм Ходячие мертвецы через торрент бесплантно в хорошем качестве Описание: Сериал рассказывает историю жизни семьи шерифа после того, как «зомби» — эпидемия апокалиптических масштабов захлестнула земной ... 10 10 6
Торрент: Зарегистрирован [2020-04-26 09:59] · скачан: 62 раз
Статус: √ проверено
Размер: 9.62 GB
Как cкачать? Как скачать Ходячие мертвецы через торрент | qTorrent

% Раздел Тема Автор DL S | L
Ходячие мертвецы (The Walking Dead) [ 225.23 GB ] Ходячие мертвецы / The Walking Dead / Сезон: 5 / Серии: 1-16 из 16 [2014-2015 зомби постапокалипсис BDRemux 1080p] 2xMVO [LostFilm FOX] sheker187 Скачать
1 | 0
Зарубежные сериалы [ 9.85 GB ] Ходячие мертвецы / The Walking Dead / Сезон: 10 / Серии: 1-15 из 15 [2019 WEB-DLRip] MVO [LostFilm] Эдвард Кенуэй Скачать
8 | 3
Ходячие мертвецы (The Walking Dead) [ 50.17 GB ] Ходячие мертвецы / The Walking Dead / Сезон: 10 / Серии: 1-15 из 15 [2019 WEB-DL 1080p] MVO [Jaskier] bober100 Скачать
1 | 0
Ходячие мертвецы (The Walking Dead) [ 31.14 GB ] Ходячие мертвецы / The Walking Dead / Сезон: 10 / Серии: 1-15 из 15 [2019 WEB-DL 720p] MVO [Jaskier] bober100 Скачать
1 | 0
Ходячие мертвецы (The Walking Dead) [ 8.15 GB ] Ходячие мертвецы / The Walking Dead / Сезон: 10 / Серии: 1-15 из 15 [2019 WEB-DLRip] MVO [Jaskier] bober100 Скачать
1 | 0
Ходячие мертвецы (The Walking Dead) [ 52.66 GB ] Ходячие мертвецы / The Walking Dead / Сезон: 10 / Серия: 1-15 из 15 [2019 WEB-DL 1080p] MVO [LostFilm] bober100 Скачать
2 | 1
Ходячие мертвецы (The Walking Dead) [ 51.28 GB ] Ходячие мертвецы / The Walking Dead / Сезон: 10 / Серии: 1-15 из 15 [2019 WEB-DL 1080p] MVO [TVShows] bober100 Скачать
1 | 0


Последний раз редактировалось: bober100 (2020-04-26 09:59), всего редактировалось 3 раз(а)

28-11-2019 20:33  

Отключить всю рекламу на сайте

07-10-2019 19:45 Ходячие мертвецы Скачать торрент  

bober100 писал(а):

Ходячие мертвецы

Ну это уже реально сериал "Ходячий труп" после 6 сезона забил на него. Выжимают последнее, ибо еще хавают люди эту резину. Первые сезоны конечно были супер.piratbit.org



08-10-2019 03:12 Ходячие мертвецы Скачать торрент  

Ворон писал(а):

bober100 писал(а):

Ходячие мертвецы

Ну это уже реально сериал "Ходячий труп" после 6 сезона забил на него. Выжимают последнее, ибо еще хавают люди эту резину. Первые сезоны конечно были супер.

++++piratbit.org



    Дорогой пользователь! Огромная просьба, поблагодарите релизера, оцените раздачу и оставьте свои комментарий, если Вы скачали Ходячие мертвецы через торрент бесплатно! Внесите свою лепту в развитие PiratBit!
    Комментировать посты могут только пользователи прошедшие не сложную регистрацию
    Показать сообщения:    

    Ходячие мертвецы через торрент
    Скачать бесплатно Ходячие мертвецы
    Ходячие мертвецы скачать торрент
    Ходячие мертвецы смотреть онлайн
    Cкачать фильм Ходячие мертвецы бесплатно
    Ходячие мертвецы скачать торрент в хорошем качестве
    Ходячие мертвецы смотреть онлайн бесплатно в хорошем качестве


    Вы не можете начинать темы
    Вы не можете отвечать на сообщения
    Вы не можете редактировать свои сообщения
    Вы не можете удалять свои сообщения
    Вы не можете голосовать в опросах
    Вы не можете прикреплять файлы к сообщениям
    Вы можете скачивать файлы