Ссылка на приватное зеркало нашего сайта всего за 1$. Внимание количество ограничено!!!

2 сезон

iTunes

iTunes

1

iTunes

iTunes

iTunes

WEBRip

iTunes

30
pack

Вам бонус

ВАЖНО

!!Акция!!

Alien_RageХит недели

RePack

Horizon Zero Dawn

ИГРА 18+

pack

RePack

jed

!!Акция!!

Alien_Rage

RePack

fifa19

RePack

Assassins Creed: Odyssey

RePack

NEED FOR SPEED™ PAYBACK

4 сезон

9 сезон

Бесстыжие 9 сезон

Все сериалы

все сериалы на PB.wtf

RePack

FAR CRY 5
  

Ходячие мертвецы / The Walking Dead / Сезон: 10 / Серии: 1-15 из 15 (Грег Никотеро, Эрнест Р. Дикерсон, Майкл Е. Сатраземис) [2019, США, ужасы, триллер, драма, WEB-DL 720p] MVO [LostFilm] piratbit.org

Ходячие мертвецы через торрент piratbit.org

Размер: 33.62 GB | Добавлен: 5 мес. 21 д. назад | Торрент скачан:61 раз
Скачать  

09-10-2019 01:13 Ходячие мертвецы Скачать торрент  

Ходячие мертвецы | The Walking Dead
Год выпуска: 2019
Страна: США | AMC
Жанр: Ужасы, триллер, драма
Продолжительность: ~00:45:00
Перевод: Профессиональный (многоголосый закадровый) | LostFilm
Субтитры: Русские (Forced |«LostFilm»|, Full), английские (Full, SDH)

Режиссёр: Грег Никотеро, Эрнест Р. Дикерсон, Майкл Е. Сатраземис

В ролях: Эндрю Линкольн, Скотт Уилсон, Данай Джекесай Гурира, Дэвид Моррисси, Стивен Юн, Лорен Коэн, Чендлер Риггз, Норман Ридус, Мелисса Сюзанн МакБрайд, Эмили Кинни, Чад Коулмэн, Сонеква Мартин и др.

Описание: Спустя несколько месяцев после резни во время ярмарки сообщества, проведённой Альфой (Саманта Мортон), обстоятельства сосредотачиваются на объединённых сообществах, поскольку они начинают борьбу, чтобы положить конец угрозе Шептунов.


Качество: WEB-DL 720p
Формат: MKV

Видео: AVC, 1280x720 (16:9), 23.976 fps, ~5700 kbps
Аудио №1: AC3, 48,0 kHz, 6 ch, 640 kbps | LostFilm
Аудио №2: AC3, 48,0 kHz, 6 ch, 640 kbps | Original


Реклама: Отсутствует | чистый видеоряд (без заставки и логотипа)
01. Lines We Cross / Границы, которые мы пересекли
02. We Are the End of the World / Мы — конец света
03. Ghosts / Призраки
04. Silence the Whisperers / Заткните Шепчущих
05. What It Always Is / Как и всегда
Исходник: The.Walking.Dead.S10.720p.AMZN.WEB-DL.DDP5.1.x264-CasStudio
Аудио №1 получено наложением выделенных голосов от «LostFilm» на центр оригинального EAC3
Постер, работа со звуком и субтитрами: itunestv@eniahd
Complete name : F:\The.Walking.Dead_s10_LostFilm_720p\The.Walking.Dead.s10e01.WEB-DL.720p_EniaHD.mkv
Format : Matroska
Format version : Version 2
File size : 2.55 GiB
Duration : 51 min 33 s
Overall bit rate : 7 084 kb/s
Movie name : The Walking Dead 10x01 (Lines We Cross) - release by Kastiel@EniaHD
Encoded date : UTC 2019-10-09 13:53:36
Writing application : mkvmerge v4.9.1 ('Ich will') сборка от Jul 11 2011 23:53:15
Writing library : libebml v1.2.1 + libmatroska v1.1.1

Video
ID : 1
Format : AVC
Format/Info : Advanced Video Codec
Format profile : High@L3.1
Format settings : CABAC / 4 Ref Frames
Format settings, CABAC : Yes
Format settings, Reference : 4 frames
Codec ID : V_MPEG4/ISO/AVC
Duration : 51 min 33 s
Bit rate mode : Constant
Bit rate : 5 663 kb/s
Nominal bit rate : 6 000 kb/s
Width : 1 280 pixels
Height : 720 pixels
Display aspect ratio : 16:9
Frame rate mode : Constant
Frame rate : 23.976 (24000/1001) FPS
Color space : YUV
Chroma subsampling : 4:2:0
Bit depth : 8 bits
Scan type : Progressive
Bits/(Pixel*Frame) : 0.256
Stream size : 2.04 GiB (80%)
Default : Yes
Forced : No
Color range : Limited
Color primaries : BT.709
Transfer characteristics : BT.709
Matrix coefficients : BT.709

Audio #1
ID : 2
Format : AC-3
Format/Info : Audio Coding 3
Commercial name : Dolby Digital
Codec ID : A_AC3
Duration : 51 min 33 s
Bit rate mode : Constant
Bit rate : 640 kb/s
Channel(s) : 6 channels
Channel layout : L R C LFE Ls Rs
Sampling rate : 48.0 kHz
Frame rate : 31.250 FPS (1536 SPF)
Bit depth : 16 bits
Compression mode : Lossy
Stream size : 236 MiB (9%)
Title : DD5.1 LostFilm
Language : Russian
Service kind : Complete Main
Default : Yes
Forced : No

Audio #2
ID : 3
Format : AC-3
Format/Info : Audio Coding 3
Commercial name : Dolby Digital
Codec ID : A_AC3
Duration : 51 min 33 s
Bit rate mode : Constant
Bit rate : 640 kb/s
Channel(s) : 6 channels
Channel layout : L R C LFE Ls Rs
Sampling rate : 48.0 kHz
Frame rate : 31.250 FPS (1536 SPF)
Bit depth : 16 bits
Compression mode : Lossy
Stream size : 236 MiB (9%)
Title : DD5.1 Original
Language : English
Service kind : Complete Main
Default : No
Forced : No

Text #1
ID : 4
Format : UTF-8
Codec ID : S_TEXT/UTF8
Codec ID/Info : UTF-8 Plain Text
Title : Forced |LF|
Language : Russian
Default : Yes
Forced : No

Text #2
ID : 5
Format : UTF-8
Codec ID : S_TEXT/UTF8
Codec ID/Info : UTF-8 Plain Text
Title : Full
Language : Russian
Default : No
Forced : No

Text #3
ID : 6
Format : UTF-8
Codec ID : S_TEXT/UTF8
Codec ID/Info : UTF-8 Plain Text
Language : English
Default : No
Forced : No

Text #4
ID : 7
Format : UTF-8
Codec ID : S_TEXT/UTF8
Codec ID/Info : UTF-8 Plain Text
Title : SDH
Language : English
Default : No
Forced : No
При каждом добавлении создаётся новый торрент. Чтобы начать докачку новой серии, пользователям необходимо сделать следующее:
- остановить скачивание;
- удалить старый торрент у себя из клиента (старые серии удалять не надо);
- скачать новый торрент и запустить его у себя в клиенте вместо старого, при этом указать клиенту путь в старую папку, куда и должно происходить скачивание новых серий.
piratbit.org



Скачать Ходячие мертвецы через торрент https://c.radikal.ru/c04/1910/e1/366ca7910c89.png Скачать фильм Ходячие мертвецы через торрент бесплантно в хорошем качестве Описание: Спустя несколько месяцев после резни во время ярмарки сообщества, проведённой Альфой (Саманта Мортон), обстоятельства ... 8.9 10 8
Торрент: Зарегистрирован [2020-04-08 18:53] · скачан: 61 раз
Статус: √ проверено
Размер: 33.62 GB
Как cкачать? Как скачать Ходячие мертвецы через торрент | qTorrent

% Раздел Тема Автор DL S | L
Ходячие мертвецы (The Walking Dead) [ 225.23 GB ] Ходячие мертвецы / The Walking Dead / Сезон: 5 / Серии: 1-16 из 16 [2014-2015 зомби постапокалипсис BDRemux 1080p] 2xMVO [LostFilm FOX] sheker187 Скачать
1 | 0
Зарубежные сериалы [ 9.85 GB ] Ходячие мертвецы / The Walking Dead / Сезон: 10 / Серии: 1-15 из 15 [2019 WEB-DLRip] MVO [LostFilm] Эдвард Кенуэй Скачать
4 | 2
Ходячие мертвецы (The Walking Dead) [ 50.17 GB ] Ходячие мертвецы / The Walking Dead / Сезон: 10 / Серии: 1-15 из 15 [2019 WEB-DL 1080p] MVO [Jaskier] bober100 Скачать
1 | 0
Ходячие мертвецы (The Walking Dead) [ 31.14 GB ] Ходячие мертвецы / The Walking Dead / Сезон: 10 / Серии: 1-15 из 15 [2019 WEB-DL 720p] MVO [Jaskier] bober100 Скачать
1 | 0
Ходячие мертвецы (The Walking Dead) [ 8.15 GB ] Ходячие мертвецы / The Walking Dead / Сезон: 10 / Серии: 1-15 из 15 [2019 WEB-DLRip] MVO [Jaskier] bober100 Скачать
3 | 0
Ходячие мертвецы (The Walking Dead) [ 52.66 GB ] Ходячие мертвецы / The Walking Dead / Сезон: 10 / Серия: 1-15 из 15 [2019 WEB-DL 1080p] MVO [LostFilm] bober100 Скачать
1 | 0
Ходячие мертвецы (The Walking Dead) [ 51.28 GB ] Ходячие мертвецы / The Walking Dead / Сезон: 10 / Серии: 1-15 из 15 [2019 WEB-DL 1080p] MVO [TVShows] bober100 Скачать
1 | 0

28-11-2019 20:33  

Отключить всю рекламу на сайте

    Дорогой пользователь! Огромная просьба, поблагодарите релизера, оцените раздачу и оставьте свои комментарий, если Вы скачали Ходячие мертвецы через торрент бесплатно! Внесите свою лепту в развитие PiratBit!
    Комментировать посты могут только пользователи прошедшие не сложную регистрацию
    Показать сообщения:    

    Ходячие мертвецы через торрент
    Скачать бесплатно Ходячие мертвецы
    Ходячие мертвецы скачать торрент
    Ходячие мертвецы смотреть онлайн
    Cкачать фильм Ходячие мертвецы бесплатно
    Ходячие мертвецы скачать торрент в хорошем качестве
    Ходячие мертвецы смотреть онлайн бесплатно в хорошем качестве


    Вы не можете начинать темы
    Вы не можете отвечать на сообщения
    Вы не можете редактировать свои сообщения
    Вы не можете удалять свои сообщения
    Вы не можете голосовать в опросах
    Вы не можете прикреплять файлы к сообщениям
    Вы можете скачивать файлы