MEGA NEWS Получи личный уникальный адрес сайта и защити себя от блокировок. Внимание количество ограничено!!!

iTunes

1+1

iTunes

мы

iTunes

1

iTunes

Чернобыль

iTunes

Ральф против интернета

Лицензия

ПШазам

Лицензия

Игра престолов

Лицензия

30
pack

ВАЖНО

!!Акция!!

Alien_RageХит недели

RePack

Resident Evil 21

ИГРА 18+

pack

RePack

Metro:Exodus

!!Акция!!

Alien_Rage

RePack

fifa19

RePack

Assassins Creed: Odyssey

RePack

NEED FOR SPEED™ PAYBACK

3 сезон

9 сезон

Бесстыжие 9 сезон

Все сериалы

все сериалы на PB.wtf

RePack

FAR CRY 5
Ребята, катастрофически не хватает 1900р. для оплаты серверов за АВГУСТ (всвязи с блокировками трафик упал в 3 раза), 1-2р., выручайте.
  

Tom Keifer Band - Rise/ FLAC/ image +.cue/ lossless - 2019/ Hard Rock piratbit.org

Tom Keifer Band - Rise через торрент piratbit.org

Раздают: 2 [ 0 KB/s ]
Размер: 338 MB | Добавлен: 8 д. назад | Торрент скачан:3 раза
Скачать  

09-10-2019 10:38 Tom Keifer Band - Rise Скачать торрент  


Tom Keifer Band - Rise


Год издания: 2019
Страна: USA
Жанр: Hard Rock
Продолжительность: 00:41:40
Лейбл издания: Cleopatra Records
Страна-выпуска диска: USA
Номер по каталогу: CLO1430
Формат: FLAC
Битрейт аудио: Lossless
Тип рипа: image +.cue
Наличие сканов в содержимом раздачи: да



01. Touching The Divine (4:18)
02. The Death Of Me (3:19)
03. Waiting On The Demons (4:34)
04. Hype (3:16)
05. Untitled (5:20)
06. Rise (4:17)
07. All Amped Up (3:18)
08. Breaking Down (3:29)
09. Taste For The Pain (3:11)
10. Life Was Here (3:32)
11. You Believe In Me (3:04)


Код:

Exact Audio Copy V1.3 from 2. September 2016

EAC extraction logfile from 2. October 2019, 18:26

Tom Keifer Band / Rise

Used drive  : ASUS    DRW-24B1ST   Adapter: 1  ID: 1

Read mode               : Secure
Utilize accurate stream : Yes
Defeat audio cache      : Yes
Make use of C2 pointers : No

Read offset correction                      : 6
Overread into Lead-In and Lead-Out          : No
Fill up missing offset samples with silence : Yes
Delete leading and trailing silent blocks   : No
Null samples used in CRC calculations       : Yes
Used interface                              : Native Win32 interface for Win NT & 2000

Used output format              : User Defined Encoder
Selected bitrate                : 1024 kBit/s
Quality                         : High
Add ID3 tag                     : No
Command line compressor         : E:\Install\All for Music\Lossless\FLAC_1.3.2\flac-1.3.2-git-20170314-x64-icl\flac.exe
Additional command line options : -V -8 -T "Genre=%genre%" -T "Artist=%artist%" -T "Title=%title%" -T "Album=%albumtitle%" -T "Date=%year%" -T "Tracknumber=%tracknr%" -T "Comment=%comment%" %source%

TOC of the extracted CD

     Track |   Start  |  Length  | Start sector | End sector
    ---------------------------------------------------------
        1  |  0:00.00 |  4:18.01 |         0    |    19350
        2  |  4:18.01 |  3:19.33 |     19351    |    34308
        3  |  7:37.34 |  4:33.49 |     34309    |    54832
        4  | 12:11.08 |  3:15.60 |     54833    |    69517
        5  | 15:26.68 |  5:20.23 |     69518    |    93540
        6  | 20:47.16 |  4:17.36 |     93541    |   112851
        7  | 25:04.52 |  3:18.24 |    112852    |   127725
        8  | 28:23.01 |  3:28.65 |    127726    |   143390
        9  | 31:51.66 |  3:11.29 |    143391    |   157744
       10  | 35:03.20 |  3:31.63 |    157745    |   173632
       11  | 38:35.08 |  3:04.20 |    173633    |   187452

Range status and errors

Selected range

     Filename E:\Ginger Devil\Tom Keifer Band - Rise (2019) (Cleopatra Records, CLO1430, U.S.A.)\Tom Keifer Band - Rise.wav

     Peak level 100.0 %
     Extraction speed 3.9 X
     Range quality 100.0 %
     Test CRC E9B2F1AF
     Copy CRC E9B2F1AF
     Copy OK

No errors occurred

AccurateRip summary

Track  1  not present in database
Track  2  not present in database
Track  3  not present in database
Track  4  not present in database
Track  5  not present in database
Track  6  not present in database
Track  7  not present in database
Track  8  not present in database
Track  9  not present in database
Track 10  not present in database
Track 11  not present in database

None of the tracks are present in the AccurateRip database

End of status report

Код:

REM GENRE Rock
REM DATE 2019
REM DISCID 8809C30B
REM COMMENT "ExactAudioCopy v1.3"
PERFORMER "Tom Keifer Band"
TITLE "Rise"
REM COMPOSER "Tom Keifer Band"
FILE "Tom Keifer Band - Rise.flac" WAVE
  TRACK 01 AUDIO
    TITLE "Touching The Divine"
    PERFORMER "Tom Keifer Band"
    REM COMPOSER "Tom Keifer Band"
    INDEX 01 00:00:00
  TRACK 02 AUDIO
    TITLE "The Death Of Me"
    PERFORMER "Tom Keifer Band"
    REM COMPOSER "Tom Keifer Band"
    INDEX 01 04:18:01
  TRACK 03 AUDIO
    TITLE "Waiting On The Demons"
    PERFORMER "Tom Keifer Band"
    REM COMPOSER "Tom Keifer Band"
    INDEX 01 07:37:34
  TRACK 04 AUDIO
    TITLE "Hype"
    PERFORMER "Tom Keifer Band"
    REM COMPOSER "Tom Keifer Band"
    INDEX 01 12:11:08
  TRACK 05 AUDIO
    TITLE "Untitled"
    PERFORMER "Tom Keifer Band"
    REM COMPOSER "Tom Keifer Band"
    INDEX 01 15:26:68
  TRACK 06 AUDIO
    TITLE "Rise"
    PERFORMER "Tom Keifer Band"
    REM COMPOSER "Tom Keifer Band"
    INDEX 01 20:47:16
  TRACK 07 AUDIO
    TITLE "All Amped Up"
    PERFORMER "Tom Keifer Band"
    REM COMPOSER "Tom Keifer Band"
    INDEX 01 25:04:52
  TRACK 08 AUDIO
    TITLE "Breaking Down"
    PERFORMER "Tom Keifer Band"
    REM COMPOSER "Tom Keifer Band"
    INDEX 01 28:23:01
  TRACK 09 AUDIO
    TITLE "Taste For The Pain"
    PERFORMER "Tom Keifer Band"
    REM COMPOSER "Tom Keifer Band"
    INDEX 01 31:51:66
  TRACK 10 AUDIO
    TITLE "Life Was Here"
    PERFORMER "Tom Keifer Band"
    REM COMPOSER "Tom Keifer Band"
    INDEX 01 35:03:20
  TRACK 11 AUDIO
    TITLE "You Believe In Me"
    PERFORMER "Tom Keifer Band"
    REM COMPOSER "Tom Keifer Band"
    INDEX 01 38:35:08






piratbit.org



Скачать Tom Keifer Band - Rise через торрент http://i87.fastpic.ru/big/2019/1009/40/e68ca789a559559b14c4134a5cc1dd40.png Скачать фильм Tom Keifer Band - Riseчерез торрент бесплантно в хорошем качестве Трэклист Touching The Divine (4:18) The Death Of Me (3:19) Waiting On The Demons (4:34) Hype (3:16) Untitled ... 5 10 1
Торрент: Зарегистрирован [2019-10-09 10:38] · скачан: 3 раз
Статус: √ проверено
Размер: 338 MB
Как cкачать? Как скачать Tom Keifer Band - Rise через торрент | qTorrent


>> Регистрируемся здесь <<






Отзывы и комментарии о схеме читаем и пишем здесь: ---> Отзывы и комментарии о схеме

Новые благодарочки в телеграм довольных пользователей:
скриншот   скриншот   скриншот   скриншот   скриншот
    Дорогой пользователь! Огромная просьба, поблагодарите релизера, оцените раздачу и оставьте свои комментарий, если Вы скачали Tom Keifer Band - Rise через торрент бесплатно! Внесите свою лепту в развитие PiratBit!
    Комментировать посты могут только пользователи прошедшие не сложную регистрацию
    Показать сообщения:    

    Tom Keifer Band - Rise через торрент
    Скачать бесплатно Tom Keifer Band - Rise
    Tom Keifer Band - Rise скачать торрент
    Tom Keifer Band - Rise смотреть онлайн
    Cкачать фильм Tom Keifer Band - Rise бесплатно
    Tom Keifer Band - Rise скачать торрент в хорошем качестве
    Tom Keifer Band - Rise смотреть онлайн бесплатно в хорошем качестве


    Вы не можете начинать темы
    Вы не можете отвечать на сообщения
    Вы не можете редактировать свои сообщения
    Вы не можете удалять свои сообщения
    Вы не можете голосовать в опросах
    Вы не можете прикреплять файлы к сообщениям
    Вы можете скачивать файлы