Доктор Стрэндж

Лицензия

Добыча

Дубляж

Уэнсдэй

1 сезон

Тор

Дубляж

В эфире

Дубляж

Там, где раки поют

MVO

Властелин колец

1 сезон

Deluxe

pack

Рекомендуем

30

Пиратка

ВАЖНО

ВАЖНО

Ghostwire

Пиратка

jed

RePack

nioh2

RePack

RDR2

RePack

NEED FOR SPEED™ PAYBACK

RePack

скачать торрент

Кинопоиск HD

Острые козырьки 6 сезон

6 сезон

FAR CRY 6

RePack

скачать торрент

Лицензия

скачать торрент

MVO

1

1 сезон

скачать торрент

1 сезон

скачать торрент

Лицензия

  

Толкин / Tolkien (Доме Карукоски) [2019, драма, биография, BDRip-AVC] 2xMVO [Лицензия, HDRezka]

Толкин через торрент piratbit.org

Размер: 2.24 GB | Добавлен: 3 года 1 мес. назад | Торрент скачан:168 раз
Смотреть онлайн | Скачать   

10-10-2019 16:28 Толкин Скачать торрент  

Толкин / Tolkien
«A Life of Love, Courage, and Fellowship»

Год выпуска: 2019
Страна: США
Жанр: драма, биография
Продолжительность: 01:51:42
Перевод:

Профессиональный многоголосый | Лицензия
Профессиональный (многоголосый, закадровый) | HDRezka

Субтитры: Русские (полные), Английские (полные, SDH)

Режиссер: Доме Карукоски

rating

В ролях: Лили Коллинз, Николас Холт, Лаура Доннелли, Патрик Гибсон, Женевьев О Рейли, Пэм Феррис, Дерек Джекоби, Колм Мини, Крэйг Робертс, Мими Кин

Описание: Картина рассказывает о том, как молодой писатель, будучи изгоем во время обучения, находит дружбу, любовь и вдохновение. Фильм затронет участие Толкина в Первой мировой войне - он служил в британских войсках с 1916-го по 1920-й.

Качество: BDRip-AVC
Формат: MKV

Видео: 1024x428 (2.40:1), 23,976 fps, x264 ~1 785 kbps avg, 0.170 bit/pixel
Аудио#1: 48 kHz, AC3 Dolby Digital, 3/2 (L,C,R,l,r) + LFE ch, ~448.00 kbps avg | RUS (Лицензия)
Аудио#2: 48 kHz, AC3 Dolby Digital, 2 (L,R) ch, ~192.00 kbps avg | RUS (HDRezka)
Аудио#3: 48 kHz, AC3 Dolby Digital, 3/2 (L,C,R,l,r) + LFE ch, ~448.00 kbps avg | ENG
скриншот  скриншот  скриншот  скриншот  скриншот  

Общее
Уникальный идентификатор : 46323884974374987057492752106368007640 (0x22D9A7DD590B7F1B49298D969487FDD8)
Полное имя : F:OlLanDGroupTolkien.2019.BDRip(AVC).OllanDGroup.mkv
Формат : Matroska
Версия формата : Version 4 / Version 2
Размер файла : 2,24 Гбайт
Продолжительность : 1 ч. 51 м.
Общий поток : 2869 Кбит/сек
Название фильма : Tolkien2019 #TorpedoUK#
Дата кодирования : UTC 2019-10-10 16:09:08
Программа кодирования : mkvmerge v29.0.0 ('Like It Or Not') 64-bit
Библиотека кодирования : libebml v1.3.6 + libmatroska v1.4.9

Видео
Идентификатор : 1
Формат : AVC
Формат/Информация : Advanced Video Codec
Профиль формата : High@L4.1
Параметр CABAC формата : Да
Параметр ReFrames формата : 10 кадров
Идентификатор кодека : V_MPEG4/ISO/AVC
Продолжительность : 1 ч. 51 м.
Битрейт : 1785 Кбит/сек
Ширина : 1024 пикселя
Высота : 428 пикселей
Соотношение сторон : 2,40:1
Режим частоты кадров : Постоянный
Частота кадров : 23,976 (24000/1001) кадра/сек
Цветовое пространство : YUV
Субдискретизация насыщенности : 4:2:0
Битовая глубина : 8 бит
Тип развёртки : Прогрессивная
Бит/(Пиксели*Кадры) : 0.170
Размер потока : 1,39 Гбайт (62%)
Библиотека кодирования : x264 core 146 r2538 121396c
Настройки программы : cabac=1 / ref=10 / deblock=1:-3:-3 / analyse=0x3:0x113 / me=umh / subme=11 / psy=1 / psy_rd=1.00:0.03 / mixed_ref=1 / me_range=48 / chroma_me=1 / trellis=2 / 8x8dct=1 / cqm=0 / deadzone=21,11 / fast_pskip=1 / chroma_qp_offset=-3 / threads=6 / lookahead_threads=1 / sliced_threads=0 / nr=0 / decimate=1 / interlaced=0 / bluray_compat=0 / constrained_intra=0 / bframes=11 / b_pyramid=2 / b_adapt=2 / b_bias=0 / direct=3 / weightb=1 / open_gop=0 / weightp=2 / keyint=240 / keyint_min=23 / scenecut=40 / intra_refresh=0 / rc_lookahead=40 / rc=2pass / mbtree=0 / bitrate=1785 / ratetol=1.0 / qcomp=0.60 / qpmin=0 / qpmax=69 / qpstep=4 / cplxblur=20.0 / qblur=0.5 / vbv_maxrate=50000 / vbv_bufsize=62500 / nal_hrd=none / filler=0 / ip_ratio=1.40 / pb_ratio=1.30 / aq=1:1.00
Язык : English
Default : Да
Forced : Нет

Аудио #1
Идентификатор : 2
Формат : AC-3
Формат/Информация : Audio Coding 3
Расширение режима : CM (complete main)
Параметр Endianness формата : Big
Идентификатор кодека : A_AC3
Продолжительность : 1 ч. 51 м.
Вид битрейта : Постоянный
Битрейт : 448 Кбит/сек
Каналы : 6 каналов
Расположение каналов : Front: L C R, Side: L R, LFE
Частота : 48,0 КГц
Частота кадров : 31,250 кадров/сек (1536 spf)
Битовая глубина : 16 бит
Метод сжатия : С потерями
Размер потока : 358 Мбайт (16%)
Заголовок : MVO [Лицензия]
Язык : Russian
Default : Да
Forced : Нет

Аудио #2
Идентификатор : 3
Формат : AC-3
Формат/Информация : Audio Coding 3
Расширение режима : CM (complete main)
Параметр Endianness формата : Big
Идентификатор кодека : A_AC3
Продолжительность : 1 ч. 51 м.
Вид битрейта : Постоянный
Битрейт : 192 Кбит/сек
Каналы : 2 канала
Расположение каналов : Front: L R
Частота : 48,0 КГц
Частота кадров : 31,250 кадров/сек (1536 spf)
Битовая глубина : 16 бит
Метод сжатия : С потерями
Размер потока : 154 Мбайт (7%)
Заголовок : MVO [HDRezka]
Язык : Russian
Default : Нет
Forced : Нет

Аудио #3
Идентификатор : 4
Формат : AC-3
Формат/Информация : Audio Coding 3
Расширение режима : CM (complete main)
Параметр Endianness формата : Big
Идентификатор кодека : A_AC3
Продолжительность : 1 ч. 51 м.
Вид битрейта : Постоянный
Битрейт : 448 Кбит/сек
Каналы : 6 каналов
Расположение каналов : Front: L C R, Side: L R, LFE
Частота : 48,0 КГц
Частота кадров : 31,250 кадров/сек (1536 spf)
Битовая глубина : 16 бит
Метод сжатия : С потерями
Размер потока : 358 Мбайт (16%)
Заголовок : [Original]
Язык : English
Default : Нет
Forced : Нет

Текст #1
Идентификатор : 5
Формат : UTF-8
Идентификатор кодека : S_TEXT/UTF8
Идентификатор кодека/Информация : UTF-8 Plain Text
Продолжительность : 1 ч. 44 м.
Битрейт : 1 бит/сек
Count of elements : 27
Размер потока : 1,45 Кбайт (0%)
Заголовок : Forced
Язык : Russian
Default : Да
Forced : Нет

Текст #2
Идентификатор : 6
Формат : UTF-8
Идентификатор кодека : S_TEXT/UTF8
Идентификатор кодека/Информация : UTF-8 Plain Text
Продолжительность : 1 ч. 45 м.
Битрейт : 96 бит/сек
Count of elements : 1600
Размер потока : 74,3 Кбайт (0%)
Заголовок : Full (Focs)
Язык : Russian
Default : Нет
Forced : Нет

Текст #3
Идентификатор : 7
Формат : UTF-8
Идентификатор кодека : S_TEXT/UTF8
Идентификатор кодека/Информация : UTF-8 Plain Text
Продолжительность : 1 ч. 45 м.
Битрейт : 58 бит/сек
Count of elements : 1594
Размер потока : 45,3 Кбайт (0%)
Заголовок : Full
Язык : English
Default : Нет
Forced : Нет

Текст #4
Идентификатор : 8
Формат : UTF-8
Идентификатор кодека : S_TEXT/UTF8
Идентификатор кодека/Информация : UTF-8 Plain Text
Продолжительность : 1 ч. 45 м.
Битрейт : 66 бит/сек
Count of elements : 1759
Размер потока : 51,7 Кбайт (0%)
Заголовок : SDH
Язык : English
Default : Нет
Forced : Нет

Меню
00:00:00.000 : en:Chapter 01
00:06:27.137 : en:Chapter 02
00:11:09.419 : en:Chapter 03
00:15:51.117 : en:Chapter 04
00:21:00.885 : en:Chapter 05
00:25:53.802 : en:Chapter 06
00:34:35.031 : en:Chapter 07
00:37:46.639 : en:Chapter 08
00:42:01.227 : en:Chapter 09
00:44:44.098 : en:Chapter 10
00:47:39.774 : en:Chapter 11
00:52:04.955 : en:Chapter 12
00:57:06.423 : en:Chapter 13
00:59:59.971 : en:Chapter 14
01:04:39.334 : en:Chapter 15
01:08:09.002 : en:Chapter 16
01:11:17.398 : en:Chapter 17
01:14:29.090 : en:Chapter 18
01:19:45.656 : en:Chapter 19
01:26:09.539 : en:Chapter 20
01:32:11.985 : en:Chapter 21
01:35:52.497 : en:Chapter 22
01:40:05.666 : en:Chapter 23
01:45:06.091 : en:Chapter 24




Скачать Толкин через торрент https://i87.fastpic.ru/big/2019/0807/7c/520d9b8146216a7ed03fb611e3433e7c.jpg Скачать, смотреть онлайн Толкин бесплантно в хорошем качестве Описание: Картина рассказывает о том, как молодой писатель, будучи изгоем во время обучения, находит дружбу, любовь и вдохновение. Фильм ... 9 10 4
Торрент: Зарегистрирован [2019-10-10 16:28] · скачан: 168 раз
Статус: √ проверено
Размер: 2.24 GB
Как cкачать? Как скачать Толкин через торрент | UTorrent

% Раздел Тема Автор DL S | L
Фильмы 2019-2020 [DVDrip, WEB-DLRip, HDrip] (DUB, MVO) [ 1.46 GB ] Толкин / Tolkien | Лицензия | BDRip Twi7ter Скачать
8 | 1
Фильмы [HD 720p, 1080p] (Хороший звук DUB, MVO) [ 14.52 GB ] Толкин / Tolkien | Лицензия | 1080p bober100 Скачать
1 | 0
Фильмы (Blu-ray, BD-Remux, HDDVD) [ 42.25 GB ] Толкин / Tolkien | Лицензия | 1080p bober100 Скачать
1 | 0
Фильмы с украинским озвучиванием [ 1.45 GB ] Толкин / Tolkien | iTunes | BDRip killermax2013 Скачать
1 | 0
Фильмы 2019-2020 [DVDrip, WEB-DLRip, HDrip] (DUB, MVO) [ 746 MB ] Толкин / Tolkien | MVO | BDRip-AVC sokol_ok Скачать
3 | 0
Фильмы [HD 720p, 1080p] (Хороший звук DUB, MVO) [ 5.42 GB ] Толкин / Tolkien | Лицензия | 720p bober100 Скачать
1 | 0
Фильмы (Blu-ray, BD-Remux, HDDVD) [ 28.43 GB ] Толкин / Tolkien | Лицензия | BD Remux 1080p bober100 Скачать
1 | 0

28-11-2019 20:33  


Отключить вcю реклaмy на сайте, в т.ч. и в плеере онлайн просмотра!

11-10-2019 06:23 Толкин Скачать торрент  

российским локализаторам оторвать бы руки,дальше она "Толкиена" обзовут "тёлкин"



11-10-2019 13:06 Толкин Скачать торрент  

LiamJ писал(а):

российским локализаторам оторвать бы руки,дальше она "Толкиена" обзовут "тёлкин"

Модерн Толкиен



    Дорогой пользователь! Огромная просьба, поблагодарите релизера, оцените раздачу и оставьте свои комментарий, если Вы скачали Толкин через торрент бесплатно!!
    Комментировать посты могут только пользователи прошедшие не сложную регистрацию
    Показать сообщения:    


    Толкин через торрент
    Скачать бесплатно Толкин
    Толкин скачать торрент
    Толкин смотреть онлайн
    Cкачать фильм Толкин бесплатно
    Толкин скачать торрент в хорошем качестве
    Толкин смотреть онлайн бесплатно в хорошем качестве
    Вы не можете начинать темы
    Вы не можете отвечать на сообщения
    Вы не можете редактировать свои сообщения
    Вы не можете удалять свои сообщения
    Вы не можете голосовать в опросах
    Вы не можете прикреплять файлы к сообщениям
    Вы можете скачивать файлы
    Толкин / Tolkien [2019, драма, биография, BDRip-AVC] 2xMVO [Лицензия, HDRezka] смотреть онлайн, скачать торрент picoco.icu