новый адрес
Мега распродажа FORZA HORIZON 4 ULTIMATE+ВСЕ DLC+ОНЛАЙН всего за 499р. 349 руб. (супер цена). Внимание количество ограничено!!!

iTunes

1+1

iTunes

мы

iTunes

1

iTunes

Чернобыль

iTunes

Ральф против интернета

Лицензия

ПШазам

Лицензия

Оно 2

Лицензия

30
pack

ВАЖНО

!!Акция!!

Alien_RageХит недели

RePack

Resident Evil 21

ИГРА 18+

pack

RePack

Metro:Exodus

!!Акция!!

Alien_Rage

RePack

fifa19

RePack

Assassins Creed: Odyssey

RePack

NEED FOR SPEED™ PAYBACK

3 сезон

9 сезон

Бесстыжие 9 сезон

Все сериалы

все сериалы на PB.wtf

RePack

FAR CRY 5
Ребята, катастрофически не хватает 1900р. для оплаты серверов за Октябрь (всвязи с блокировками трафик упал в 3 раза), 1-2р., выручайте.
  

Детство Шелдона / Юный Шелдон / Young Sheldon / Сезон: 3 / Серии: 1-5 из 22 (Джаффар Махмуд, Алекс Рейд, Марк Сендроуски) [2019, Комедия, WEB-DL 720p] MVO [NewStudio] piratbit.org

Детство Шелдона через торрент piratbit.org

Размер: 3.28 GB | Добавлен: 9 д. назад | Торрент скачан:3 раза
Скачать  

11-10-2019 20:08 Детство Шелдона Скачать торрент  

Детство Шелдона | Юный Шелдон | Young Sheldon Год выпуска: 2019
Страна: США
Жанр: Комедия
Продолжительность: ~ 00:20:00
Перевод: Профессиональный (многоголосый закадровый) | NewStudio
Субтитры: Русские (Forced, Full | PhysKids |), английские

Режиссёр: Джаффар Махмуд, Алекс Рейд, Марк Сендроуски

В ролях: Марсия Энн Бёррс, Док Фэрроу, Рекс Линн, Уайатт МакКлюр, Брайан Степанек, Мелисса Тэнг, Иэн Армитедж, Лэнс Барбер, Монтана Джордан, Джим Парсонс

Описание: История о непростом детстве вундеркинда Шелдона Купера. Родители юного гения не разделяют увлечения сына наукой: его мать очень религиозна, а отец, бывший футбольный тренер, предпочитает проводить вечера в компании пива и телевизора. Со сверстниками тоже не ладится, ведь Шелдона куда больше детских игрушек интересует, где можно взять обогащённый уран для научных экспериментов.



Качество: WEB-DL 720p
Контейнер: MKV

Видео: 1280x718 (16:9), 23.976 кадров/сек, ~4083 Кбит/сек, 0.185 bit/pixel
Аудио Rus: AC3, 48 kHz, 3/2 (L,C,R,l,r) + LFE ch, 384 Кбит/сек | NewStudio
Аудио Eng: AC3, 48 kHz, 3/2 (L,C,R,l,r) + LFE ch, 384 Кбит/сек


Реклама: Отсутствует
01. Чудаковатый умник и техасские снежные шары / Quirky Eggheads and Texas Snow Globes
02. Кладовка и монополия сатаны / A Broom Closet and Satan's Monopoly Board
Общее
Уникальный идентификатор : 275004305046359218578202477001458675031 (0xCEE3E7104BF719234AF2FE7ECE296D57)
Полное имя : E:\Young.Sheldon.s03e01.WEBDL.720p.RGzsRutracker.[Wentworth_Miller].mkv
Формат : Matroska
Версия формата : Version 4
Размер файла : 674 Мбайт
Продолжительность : 19 м. 24 с.
Общий поток : 4854 Кбит/сек
Название фильма : Young Sheldon 03x01 - Release by Wentworth_Miller
Дата кодирования : UTC 2019-10-01 21:00:32
Программа кодирования : mkvmerge v19.0.0 ('Brave Captain') 32-bit
Библиотека кодирования : libebml v1.3.5 + libmatroska v1.4.8
Attachments : 1040419.jpg

Видео
Идентификатор : 1
Формат : AVC
Формат/Информация : Advanced Video Codec
Профиль формата : High@L3.1
Настройки формата : 2 Ref Frames
Параметр CABAC формата : Нет
Параметр RefFrames формата : 2 кадра
Идентификатор кодека : V_MPEG4/ISO/AVC
Продолжительность : 19 м. 24 с.
Битрейт : 4083 Кбит/сек
Ширина : 1280 пикселей
Высота : 718 пикселей
Соотношение сторон : 16:9
Режим частоты кадров : Постоянный
Частота кадров : 23,976 (23976/1000) кадра/сек
Цветовое пространство : YUV
Субдискретизация насыщенности : 4:2:0
Битовая глубина : 8 бит
Тип развёртки : Прогрессивная
Бит/(Пиксели*Кадры) : 0.185
Размер потока : 567 Мбайт (84%)
Язык : English
Default : Да
Forced : Нет
Цветовой диапазон : Limited
Основные цвета : BT.709
Характеристики трансфера : BT.709
Коэффициенты матрицы : BT.709

Аудио #1
Идентификатор : 2
Формат : AC-3
Формат/Информация : Audio Coding 3
Коммерческое название : Dolby Digital
Идентификатор кодека : A_AC3
Продолжительность : 19 м. 24 с.
Вид битрейта : Постоянный
Битрейт : 384 Кбит/сек
Каналы : 6 каналов
ChannelLayout : L R C LFE Ls Rs
Частота : 48,0 КГц
Частота кадров : 31,250 кадров/сек (1536 SPF)
Метод сжатия : С потерями
Размер потока : 53,3 Мбайт (8%)
Заголовок : NewStudio
Язык : Russian
ServiceKind/String : Complete Main
Default : Да
Forced : Нет

Аудио #2
Идентификатор : 3
Формат : AC-3
Формат/Информация : Audio Coding 3
Коммерческое название : Dolby Digital
Идентификатор кодека : A_AC3
Продолжительность : 19 м. 24 с.
Вид битрейта : Постоянный
Битрейт : 384 Кбит/сек
Каналы : 6 каналов
ChannelLayout : L R C LFE Ls Rs
Частота : 48,0 КГц
Частота кадров : 31,250 кадров/сек (1536 SPF)
Метод сжатия : С потерями
Размер потока : 53,3 Мбайт (8%)
Язык : English
ServiceKind/String : Complete Main
Default : Нет
Forced : Нет

Текст #1
Идентификатор : 4
Формат : ASS
Идентификатор кодека : S_TEXT/ASS
Идентификатор кодека/Информация : Advanced Sub Station Alpha
Продолжительность : 10 м. 46 с.
Битрейт : 2 бит/сек
ElementCount : 3
Метод сжатия : Без потерь
Размер потока : 240 байт (0%)
Заголовок : Force
Язык : Russian
Default : Да
Forced : Да

Текст #2
Идентификатор : 5
Формат : UTF-8
Идентификатор кодека : S_TEXT/UTF8
Идентификатор кодека/Информация : UTF-8 Plain Text
Продолжительность : 18 м. 49 с.
Битрейт : 134 бит/сек
ElementCount : 431
Размер потока : 18,5 Кбайт (0%)
Заголовок : PhysKids
Язык : Russian
Default : Нет
Forced : Нет

Текст #3
Идентификатор : 6
Формат : UTF-8
Идентификатор кодека : S_TEXT/UTF8
Идентификатор кодека/Информация : UTF-8 Plain Text
Продолжительность : 18 м. 58 с.
Битрейт : 90 бит/сек
ElementCount : 457
Размер потока : 12,6 Кбайт (0%)
Язык : English
Default : Нет
Forced : Нет
скриншот  скриншот  скриншот  скриншот  
Внимание! Раздача ведётся путём добавления новых серий; при каждом добавлении создаётся новый торрент. Чтобы начать докачку новой серии, пользователям необходимо сделать следующее:
(1) остановить скачивание,
(2) удалить старый торрент у себя из клиента (старые серии удалять не надо),
(3) скачать новый торрент и запустить его у себя в клиенте вместо старого, при этом указать клиенту путь в старую папку куда и должно происходить скачивание новых серий.

Ваш клиент при этом должен произвести хеширование (проверку) старой папки (если не производит сам - помогите ему сделать это), и будет докачивать только те серии которых у вас ещё нет. Старые серии при этом не удаляются, а продолжают раздаваться!

Eсли вы уже удалили старые серии, то предотвратить повторную закачку старых серий можно, отжав галочку в соответствующих местах при запуске нового торрента. По возможности, желательно не удалять старые серии как можно дольше чтобы релизёр не столько продолжал раздавать старые серии, а смог сконцентрироваться на новых.
piratbit.org



Скачать Детство Шелдона через торрент http://pic1.kartinco.top/images/12/4uqfe.jpg Скачать фильм Детство Шелдона через торрент бесплантно в хорошем качестве Описание: История о непростом детстве вундеркинда Шелдона Купера. Родители юного гения не разделяют увлечения сына наукой: его мать очень ... 10 10 2
Торрент: Зарегистрирован [2019-11-10 20:20] · скачан: 3 раз
Статус: √ проверено
Размер: 3.28 GB
Как cкачать? Как скачать Детство Шелдона через торрент | qTorrent

% Раздел Тема Автор DL S | L
Зарубежные сериалы [ 4.05 GB ] Детство Шелдона / Юный Шелдон / Young Sheldon / Сезон: 3 / Серии: 1-5 из 22 [2019 WEB-DL 1080p] MVO [NewStudio] bober100 Скачать
1 | 0


>> Регистрируемся здесь <<






Отзывы и комментарии о схеме читаем и пишем здесь: ---> Отзывы и комментарии о схеме

Новые благодарочки в телеграм довольных пользователей:
скриншот   скриншот   скриншот   скриншот   скриншот
    Дорогой пользователь! Огромная просьба, поблагодарите релизера, оцените раздачу и оставьте свои комментарий, если Вы скачали Детство Шелдона через торрент бесплатно! Внесите свою лепту в развитие PiratBit!
    Комментировать посты могут только пользователи прошедшие не сложную регистрацию
    Показать сообщения:    

    Детство Шелдона через торрент
    Скачать бесплатно Детство Шелдона
    Детство Шелдона скачать торрент
    Детство Шелдона смотреть онлайн
    Cкачать фильм Детство Шелдона бесплатно
    Детство Шелдона скачать торрент в хорошем качестве
    Детство Шелдона смотреть онлайн бесплатно в хорошем качестве


    Вы не можете начинать темы
    Вы не можете отвечать на сообщения
    Вы не можете редактировать свои сообщения
    Вы не можете удалять свои сообщения
    Вы не можете голосовать в опросах
    Вы не можете прикреплять файлы к сообщениям
    Вы можете скачивать файлы