Достать ножи: Стеклянная луковица

MVO

Добыча

Дубляж

Уэнсдэй

1 сезон

Тор

Дубляж

13 клиническая

1 сезон

Жестокая ночь

MVO

Одни из нас

1 сезон

Deluxe

pack

Рекомендуем

30

Пиратка

ВАЖНО

ВАЖНО

Ghostwire

Пиратка

jed

RePack

nioh2

RePack

RDR2

RePack

NEED FOR SPEED™ PAYBACK

RePack

скачать торрент

Кинопоиск HD

Острые козырьки 6 сезон

6 сезон

FAR CRY 6

RePack

скачать торрент

Лицензия

скачать торрент

MVO

1

1 сезон

скачать торрент

1 сезон

скачать торрент

Лицензия

  

Инопланетянин / E.T. the Extra-Terrestrial (Стивен Спилберг) [1982, Фантастика, фэнтези, драма, приключения, семейный, UHD BDRemux 2160p] Дубляж [Лицензия] +2xMVO+4xAVO+2xMVO (ukr)

Инопланетянин через торрент piratbit.org

Размер: 62.1 GB | Добавлен: 3 года 3 мес. назад | Торрент скачан:22 раза
Смотреть онлайн | Скачать | Поддержите нас   

13-10-2019 20:23 Инопланетянин Скачать торрент  

Инопланетянин / E.T. the Extra-Terrestrial
Год выпуска: 1982
Страна: США
Жанр: Фантастика, фэнтези, драма, приключения, семейный
Продолжительность: 01:54:29
Перевод: Дублированный | Лицензия, профессиональный многоголосый, авторский
Субтитры: русские (forced, full), английские SDH

Режиссер: Стивен Спилберг

rating

В ролях: Генри Томас, Дрю Бэрримор, Ди Уоллес-Стоун, Роберт МакНотон, Питер Койот, К. Ч. Мартел, Шон Фрай, С. Томас Хауэлл, Дэвид М. О’Делл, Ричард Свинглер, Фрэнк Тот, Роберт Бартон, Майкл Дэррел, Дэвид Берксон, Сьюзен Кэмерон, Дэвид Карлберг, Эрика Элениак, Уилл Фоулер мл., Барбара Хартнет, Милт Коган, Александр Лэмпон, Дайан Лэмпон, Рода Макофф, Роберт Мерфи, Ричард Песавенто, Том Шерри, Мэри Стейн, Митчел Сускин, Тед Гроссман, Энн Локхарт, Пэт Уэлш, Дебра Уингер

Описание: Инопланетянин, телом похожий на черепаху без панциря, а мордочкой одновременно на мопса и Альберта Эйнштейна, прилетел на землю с мирными намерениями — в составе научно-исследовательской группы. Специалисты из NASA заметили приближение летающей тарелки и посчитали, что просто обязаны отловить хотя бы одну из инопланетных тварей. Несчастные существа были вынуждены ретироваться настолько спешно, что забыли захватить одного из коллег. Земной мальчик Эллиот, а также его брат и сестра, которую играет семилетняя Дрю Бэрримор, преодолевая отвращение к неприятно выглядящей твари, спасают ее.

Качество: UHD BDRemux 2160p
Формат: MKV

Видео: MPEG-H HEVC Video / 53955 kbps / 3840x2160 / 23.976 fps / 16:9 / Main 10 Profile 5.1 High / 4:2:0 / 10 bits / HDR10 / BT.2020 /
Аудио 1: Russian DTS / 5.1 / 48 kHz / 768 kbps / 24-bit |Дубляж, UHD Blu-Ray|
Аудио 2: Russian AC3 / 5.1 / 48 kHz / 448 kbps / 16-bit |MVO, ОРТ|
Аудио 3: Russian AC3 / 2.0 / 48 kHz / 192 kbps / 16-bit |MVO, НТВ|
Аудио 4: Russian DTS-HD Master Audio / 7.1 / 48 kHz / 5188 kbps / 24-bit (DTS Core: 5.1 / 48 kHz / 1509 kbps / 24-bit) |А. Михалев|
Аудио 5: Russian DTS-HD Master Audio / 7.1 / 48 kHz / 5194 kbps / 24-bit (DTS Core: 5.1 / 48 kHz / 1509 kbps / 24-bit) |Ю. Живов|
Аудио 6: Russian AC3 / 2.0 / 48 kHz / 192 kbps / 16-bit |А. Дольский|
Аудио 7: Russian AC3 / 2.0 / 48 kHz / 192 kbps / 16-bit |"Леша-прапорщик"|
Аудио 8: Ukrainian DTS-HD Master Audio / 7.1 / 48 kHz / 5195 kbps / 24-bit (DTS Core: 5.1 / 48 kHz / 1509 kbps / 24-bit) |MVO, Новий канал|
Аудио 9: Ukrainian AC3 / 5.1 / 48 kHz / 384 kbps / 16-bit |MVO, 1+1|
Аудио 10: English DTS:X/DTS-HD Master Audio / 7.1-X / 48 kHz / 5910 kbps / 24-bit (DTS Core: 5.1 / 48 kHz / 1509 kbps / 24-bit) |original|
скриншот  скриншот  скриншот  

скриншот  скриншот  скриншот  

Общее
Уникальный идентификатор : 30338492444798520528201289131277980885 (0x16D2FB29CF07D7A51B0E3780B03894D5)
Полное имя : H:\UHD\Инопланетянин.1982.UHD.Blu-Ray.Remux.2160p.mkv
Формат : Matroska
Версия формата : Version 4
Размер файла : 62,1 Гбайт
Продолжительность : 1 ч. 54 м.
Режим общего битрейта : Переменный
Общий поток : 77,7 Мбит/сек
Дата кодирования : UTC 2019-10-12 14:31:13
Программа кодирования : mkvmerge v38.0.0 ('The Silent Type') 64-bit
Библиотека кодирования : libebml v1.3.9 + libmatroska v1.5.2
Attachments : poster.jpg

Видео
Идентификатор : 1
Формат : HEVC
Формат/Информация : High Efficiency Video Coding
Профиль формата : Main 10@L5.1@High
HDR_Format/String : SMPTE ST 2086, HDR10 compatible
Идентификатор кодека : V_MPEGH/ISO/HEVC
Продолжительность : 1 ч. 54 м.
Битрейт : 54,0 Мбит/сек
Ширина : 3840 пикселей
Высота : 2160 пикселей
Соотношение сторон : 16:9
Режим частоты кадров : Постоянный
Частота кадров : 23,976 (24000/1001) кадра/сек
Цветовое пространство : YUV
Субдискретизация насыщенности : 4:2:0 (Type 2)
Битовая глубина : 10 бит
Бит/(Пиксели*Кадры) : 0.271
Размер потока : 43,1 Гбайт (69%)
Библиотека кодирования : ATEME Titan File 3.8.3 (4.8.3.0)
Default : Да
Forced : Нет
Цветовой диапазон : Limited
Основные цвета : BT.2020
Характеристики трансфера : PQ
Коэффициенты матрицы : BT.2020 non-constant
MasteringDisplay_ColorPrimaries : Display P3
MasteringDisplay_Luminance : min: 0.0050 cd/m2, max: 1000 cd/m2
MaxCLL : 1000 cd/m2
MaxFALL : 148 cd/m2

Аудио #1
Идентификатор : 2
Формат : DTS
Формат/Информация : Digital Theater Systems
Идентификатор кодека : A_DTS
Продолжительность : 1 ч. 54 м.
Вид битрейта : Постоянный
Битрейт : 768 Кбит/сек
Каналы : 6 каналов
ChannelLayout : C L R Ls Rs LFE
Частота : 48,0 КГц
Частота кадров : 93,750 кадра/сек (512 SPF)
Битовая глубина : 24 бит
Метод сжатия : С потерями
Размер потока : 629 Мбайт (1%)
Заголовок : Дубляж, UHD Blu-Ray
Язык : Russian
Default : Да
Forced : Нет

Аудио #2
Идентификатор : 3
Формат : AC-3
Формат/Информация : Audio Coding 3
Коммерческое название : Dolby Digital
Идентификатор кодека : A_AC3
Продолжительность : 1 ч. 54 м.
Вид битрейта : Постоянный
Битрейт : 448 Кбит/сек
Каналы : 6 каналов
ChannelLayout : L R C LFE Ls Rs
Частота : 48,0 КГц
Частота кадров : 31,250 кадров/сек (1536 SPF)
Метод сжатия : С потерями
Размер потока : 367 Мбайт (1%)
Заголовок : MVO, ОРТ
Язык : Russian
ServiceKind/String : Complete Main
Default : Нет
Forced : Нет

Аудио #3
Идентификатор : 4
Формат : AC-3
Формат/Информация : Audio Coding 3
Коммерческое название : Dolby Digital
Идентификатор кодека : A_AC3
Продолжительность : 1 ч. 54 м.
Вид битрейта : Постоянный
Битрейт : 192 Кбит/сек
Каналы : 2 канала
ChannelLayout : L R
Частота : 48,0 КГц
Частота кадров : 31,250 кадров/сек (1536 SPF)
Метод сжатия : С потерями
Размер потока : 157 Мбайт (0%)
Заголовок : MVO, НТВ
Язык : Russian
ServiceKind/String : Complete Main
Default : Нет
Forced : Нет

Аудио #4
Идентификатор : 5
Формат : DTS XLL
Формат/Информация : Digital Theater Systems
Коммерческое название : DTS-HD Master Audio
Идентификатор кодека : A_DTS
Продолжительность : 1 ч. 54 м.
Вид битрейта : Переменный
Битрейт : 5188 Кбит/сек
Каналы : 8 каналов
ChannelLayout : C L R LFE Lb Rb Lss Rss
Частота : 48,0 КГц
Частота кадров : 93,750 кадра/сек (512 SPF)
Битовая глубина : 24 бит
Метод сжатия : Без потерь
Размер потока : 4,15 Гбайт (7%)
Заголовок : А. Михалев
Язык : Russian
Default : Нет
Forced : Нет

Аудио #5
Идентификатор : 6
Формат : DTS XLL
Формат/Информация : Digital Theater Systems
Коммерческое название : DTS-HD Master Audio
Идентификатор кодека : A_DTS
Продолжительность : 1 ч. 54 м.
Вид битрейта : Переменный
Битрейт : 5194 Кбит/сек
Каналы : 8 каналов
ChannelLayout : C L R LFE Lb Rb Lss Rss
Частота : 48,0 КГц
Частота кадров : 93,750 кадра/сек (512 SPF)
Битовая глубина : 24 бит
Метод сжатия : Без потерь
Размер потока : 4,15 Гбайт (7%)
Заголовок : Ю. Живов
Язык : Russian
Default : Нет
Forced : Нет

Аудио #6
Идентификатор : 7
Формат : AC-3
Формат/Информация : Audio Coding 3
Коммерческое название : Dolby Digital
Идентификатор кодека : A_AC3
Продолжительность : 1 ч. 54 м.
Вид битрейта : Постоянный
Битрейт : 192 Кбит/сек
Каналы : 2 канала
ChannelLayout : L R
Частота : 48,0 КГц
Частота кадров : 31,250 кадров/сек (1536 SPF)
Метод сжатия : С потерями
Размер потока : 157 Мбайт (0%)
Заголовок : А. Дольский
Язык : Russian
ServiceKind/String : Complete Main
Default : Нет
Forced : Нет

Аудио #7
Идентификатор : 8
Формат : AC-3
Формат/Информация : Audio Coding 3
Коммерческое название : Dolby Digital
Идентификатор кодека : A_AC3
Продолжительность : 1 ч. 54 м.
Вид битрейта : Постоянный
Битрейт : 224 Кбит/сек
Каналы : 2 канала
ChannelLayout : L R
Частота : 48,0 КГц
Частота кадров : 31,250 кадров/сек (1536 SPF)
Метод сжатия : С потерями
Размер потока : 183 Мбайт (0%)
Заголовок : "Леша-прапорщик"
Язык : Russian
ServiceKind/String : Complete Main
Default : Нет
Forced : Нет

Аудио #8
Идентификатор : 9
Формат : DTS XLL
Формат/Информация : Digital Theater Systems
Коммерческое название : DTS-HD Master Audio
Идентификатор кодека : A_DTS
Продолжительность : 1 ч. 54 м.
Вид битрейта : Переменный
Битрейт : 5195 Кбит/сек
Каналы : 8 каналов
ChannelLayout : C L R LFE Lb Rb Lss Rss
Частота : 48,0 КГц
Частота кадров : 93,750 кадра/сек (512 SPF)
Битовая глубина : 24 бит
Метод сжатия : Без потерь
Размер потока : 4,15 Гбайт (7%)
Заголовок : MVO, Новий канал
Язык : Ukrainian
Default : Нет
Forced : Нет

Аудио #9
Идентификатор : 10
Формат : AC-3
Формат/Информация : Audio Coding 3
Коммерческое название : Dolby Digital
Идентификатор кодека : A_AC3
Продолжительность : 1 ч. 54 м.
Вид битрейта : Постоянный
Битрейт : 384 Кбит/сек
Каналы : 6 каналов
ChannelLayout : L R C LFE Ls Rs
Частота : 48,0 КГц
Частота кадров : 31,250 кадров/сек (1536 SPF)
Метод сжатия : С потерями
Размер потока : 314 Мбайт (0%)
Заголовок : MVO, 1+1
Язык : Ukrainian
ServiceKind/String : Complete Main
Default : Нет
Forced : Нет

Аудио #10
Идентификатор : 11
Формат : DTS XLL X
Формат/Информация : Digital Theater Systems
Коммерческое название : DTS-HD Master Audio
Идентификатор кодека : A_DTS
Продолжительность : 1 ч. 54 м.
Вид битрейта : Переменный
Битрейт : 5910 Кбит/сек
Каналы : 8 каналов
Channel(s)_Original : Object Based
ChannelLayout_Original : Object Based
Частота : 48,0 КГц
Частота кадров : 93,750 кадра/сек (512 SPF)
Битовая глубина : 24 бит
Размер потока : 4,73 Гбайт (8%)
Язык : English
Default : Нет
Forced : Нет

Текст #1
Идентификатор : 12
Формат : UTF-8
Идентификатор кодека : S_TEXT/UTF8
Идентификатор кодека/Информация : UTF-8 Plain Text
Продолжительность : 1 ч. 32 м.
Битрейт : 0 бит/сек
ElementCount : 2
Размер потока : 15,0 байт (0%)
Заголовок : forced
Язык : Russian
Default : Да
Forced : Нет

Текст #2
Идентификатор : 13
Формат : UTF-8
Идентификатор кодека : S_TEXT/UTF8
Идентификатор кодека/Информация : UTF-8 Plain Text
Продолжительность : 1 ч. 48 м.
Битрейт : 44 бит/сек
ElementCount : 882
Размер потока : 35,5 Кбайт (0%)
Заголовок : full
Язык : Russian
Default : Нет
Forced : Нет

Текст #3
Идентификатор : 14
Формат : UTF-8
Идентификатор кодека : S_TEXT/UTF8
Идентификатор кодека/Информация : UTF-8 Plain Text
Продолжительность : 1 ч. 47 м.
Битрейт : 40 бит/сек
ElementCount : 1161
Размер потока : 31,7 Кбайт (0%)
Заголовок : SDH
Язык : English
Default : Нет
Forced : Нет

Меню
00:00:00.000 : :The Visitors
00:04:49.956 : :Left Behind
00:08:03.357 : :A Boy's Life
00:09:57.096 : :Something in the Shed
00:12:36.714 : :Boy Meets Alien
00:19:24.580 : :A New Friend
00:31:32.849 : :Elliott's Alien
00:36:52.293 : :Home
00:43:13.757 : :A Psychic Link
00:50:34.197 : :E.T. Phone Home
00:57:44.794 : :The Magic Touch
01:00:34.130 : :Halloween
01:04:13.474 : :A Moonlight Ride
01:11:30.577 : :Looking for E.T.
01:15:23.143 : :Quarantine
01:23:37.345 : :Losing E.T.
01:30:29.841 : :Back to Life
01:35:41.902 : :The Escape
01:43:26.241 : :I'll Be Right Here...
01:50:34.919 : :End Titles




Скачать Инопланетянин через торрент http://a.radikal.ru/a28/1803/1e/feb2da3e20e5.jpg Скачать, смотреть онлайн Инопланетянин бесплантно в хорошем качестве Описание: Инопланетянин, телом похожий на черепаху без панциря, а мордочкой одновременно на мопса и Альберта Эйнштейна, прилетел на землю с ... 10 10 2
Info! Золотая раздача, скачанное не засчитывается.
Торрент: Зарегистрирован [2019-10-13 20:23] · скачан: 22 раз
Статус: √ проверено
Размер: 62.1 GB
Как cкачать? Как скачать Инопланетянин через торрент | UTorrent

% Раздел Тема Автор DL S | L
Ultra HD (UHD: 2K, 4K, 8K) [ 56.84 GB ] Инопланетянин / E.T. the Extra-Terrestrial | Лицензия | 2160p bober100 Скачать
1 | 0
Фильмы [HD 720p, 1080p] (Хороший звук DUB, MVO) [ 7.76 GB ] Инопланетянин / E.T. the Extra-Terrestrial | DUB | 720p от еnvy / NNNB еnvy Скачать
3 | 0
Фильмы [HD 720p, 1080p] (Хороший звук DUB, MVO) [ 7.75 GB ] Инопланетянин / E.T. the Extra-Terrestrial | DUB | 720p от еnvy / NNNB еnvy Скачать
2 | 0
Фильмы [HD 720p, 1080p] (Хороший звук DUB, MVO) [ 12.02 GB ] Инопланетянин / E.T. the Extra-Terrestrial | MVO + 3xAVO + 2xMVO Ukr + Origin + Subs | 720p -Lexx- Скачать
1 | 0
Фильмы до 2000 г. [ 1.45 GB ] Инопланетянин / E.T. the Extra-Terrestrial | | HDTVRip-AVC wekotila Скачать
1 | 0
Фильмы до 2000 г. [ 1.53 GB ] Инопланетянин / E.T. the Extra-Terrestrial | | DVDRip feldeger Скачать
1 | 0

28-11-2019 20:33  


Отключить вcю реклaмy на сайте, в т.ч. и в плеере онлайн просмотра!

    Дорогой пользователь! Огромная просьба, поблагодарите релизера, оцените раздачу и оставьте свои комментарий, если Вы скачали Инопланетянин через торрент бесплатно!!
    Комментировать посты могут только пользователи прошедшие не сложную регистрацию
    Показать сообщения:    


    Инопланетянин через торрент
    Скачать бесплатно Инопланетянин
    Инопланетянин скачать торрент
    Инопланетянин смотреть онлайн
    Cкачать фильм Инопланетянин бесплатно
    Инопланетянин скачать торрент в хорошем качестве
    Инопланетянин смотреть онлайн бесплатно в хорошем качестве
    Вы не можете начинать темы
    Вы не можете отвечать на сообщения
    Вы не можете редактировать свои сообщения
    Вы не можете удалять свои сообщения
    Вы не можете голосовать в опросах
    Вы не можете прикреплять файлы к сообщениям
    Вы можете скачивать файлы
    Инопланетянин / E.T. the Extra-Terrestrial [1982, Фантастика, фэнтези, драма, приключения, семейный, UHD BDRemux 2160p] Дубляж [Лицензия] +2xMVO+4xAVO+2xMVO смотреть онлайн, скачать торрент picoco.icu