1 сезон

3 сезон

iTunes

1

iTunes

DUB Netflix

iTunes

13

1 сезон

RePack

30

Deluxe

pack

Легкие деньги

ВАЖНО

ИГРА 18+

pack

RePack

MK11

RePack

jed

RePack

fifa19

RePack

RDR2

RePack

NEED FOR SPEED™ PAYBACK

4 сезон

9 сезон

Бесстыжие 9 сезон

Все сериалы

все сериалы на PB.wtf

RePack

FAR CRY 5

Anonymous, доброй ночи, мы не успеваем до 1 числа собрать деньги на оплату серверов, помогите нам пожалуйста в это трудное время. В качестве благодарности мы отключим Вам всю рекламу на сайте (укажите свой ник в строку Ваше имя)!

×
  
Magnet ссылка

ИП Пирогова / Сезон: 2 / Серии: 1-13 из 13 (Антон Маслов) [2019, Комедия, WEB-DL 1080p] piratbit.org

ИП Пирогова через торрент piratbit.org

Раздают: 1 [ 0 KB/s ]
Размер: 9.9 GB | Добавлен: 1 год 7 мес. назад | Торрент скачан:131 раз
Скачать  

14-10-2019 01:19 ИП Пирогова Скачать торрент  

ИП Пирогова
Год выпуска: 2019
Страна: Россия
Жанр: Комедия
Продолжительность: ~ 00:25:00
Перевод: Не требуется
Субтитры: отсутствуют

Режиссер: Антон Маслов



В ролях: Елена Подкаминская, Александр Панкратов-Чёрный, Данила Дунаев, Ксения Теплова, Александр Константинов, Василина Юсковец, Елена Валюшкина

Описание: Освоив азы индивидуального предпринимательства, Вера Пирогова продолжает строить свой кондитерский бизнес. С маленькой домашней кухни она перебирается в собственное кафе-пекарню и, кажется, теперь до осуществления заветной мечты осталось совсем чуть-чуть. Однако двери кондитерской не успевают открыться, как Вере вновь приходится решать одну проблему за другой. Впрочем, шумная семья начинающей бизнес-леди всегда готова прийти на помощь. Как и Андрей – первая любовь Веры, который намерен заново покорить сердце предприимчивого кондитера. Это будет непросто, ведь Андрею придется конкурировать за внимание Веры не только с ее бизнесом, но и с мужем Димой, вернувшимся домой из СИЗО. Решится ли Вера дать второй шанс кому-то из мужчин?

Качество: WEB-DL 1080p
Формат: MKV

Видео: MPEG4 AVC Video, H264, 16:9, 1920x1080, 25 fps, ~5000 kbps, 0.096 bit/pixel
Аудио: 48.0 kHz, AC3 Dolby Digital, 2/0 (L,R) ch, ~ 192 kbps
скриншот  скриншот  скриншот  скриншот  

General
Unique ID : 245545653048800308754346691267027816890 (0xB8BA5F6231CFD8CA9BEC3C3396F451BA)
Complete name : D:\IP.Pirogova.S02.2019.WEB-DL.(1080p).Getty\IP.Pirogova.s02e01.2019.WEB-DL.(1080p).Getty.mkv
Format : Matroska
Format version : Version 4 / Version 2
File size : 882 MiB
Duration : 24 min 0 s
Overall bit rate mode : Constant
Overall bit rate : 5 135 kb/s
Movie name : IP.Pirogova.s02e01.2019.WEB-DL.(1080p).Getty
Encoded date : UTC 2019-10-13 20:58:42
Writing application : mkvmerge v7.8.0 ('River Man') 32bit built on Mar 27 2015 16:18:02
Writing library : libebml v1.3.1 + libmatroska v1.4.2

Video
ID : 1
Format : AVC
Format/Info : Advanced Video Codec
Format profile : Baseline@L4
Format settings : 4 Ref Frames
Format settings, CABAC : No
Format settings, ReFrames : 4 frames
Codec ID : V_MPEG4/ISO/AVC
Duration : 24 min 0 s
Bit rate mode : Constant
Bit rate : 5 000 kb/s
Width : 1 920 pixels
Height : 1 080 pixels
Display aspect ratio : 16:9
Frame rate mode : Constant
Frame rate : 25.000 FPS
Standard : PAL
Color space : YUV
Chroma subsampling : 4:2:0
Bit depth : 8 bits
Scan type : Progressive
Bits/(Pixel*Frame) : 0.096
Stream size : 848 MiB (96%)
Default : Yes
Forced : No
Color range : Limited
Color primaries : BT.709
Transfer characteristics : BT.709
Matrix coefficients : BT.709

Audio
ID : 2
Format : AC-3
Format/Info : Audio Coding 3
Codec ID : A_AC3
Duration : 24 min 0 s
Bit rate mode : Constant
Bit rate : 192 kb/s
Channel(s) : 2 channels
Channel positions : Front: L R
Sampling rate : 48.0 kHz
Frame rate : 31.250 FPS (1536 SPF)
Bit depth : 16 bits
Compression mode : Lossy
Stream size : 33.0 MiB (4%)
Service kind : Complete Main
Default : Yes
Forced : No

Когда раздача ведётся путём добавления новых серий, при каждом добавлении создётся новый торрент. Чтобы начать докачку новой серии, пользователям необходимо сделать следующее:
(1) остановить скачивание,
(2) удалить старый торрент у себя из клиента (старые серии удалять не надо),
(3) скачать новый торрент и запустить его у себя в клиенте вместо старого, при этом указать клиенту путь в старую папку, куда и должно происходить скачивание новых серий.
Ваш клиент при этом должен произвести хеширование (проверку) старой папки (если не производит сам - помогите ему сделать это), и будет докачивать только те серии, которых у вас ещё нет. Старые серии при этом не удаляются, а продолжают раздаваться!
Eсли вы уже удалили старые серии, то предотвратить повторную закачку старых серий можно, отжав галочку в соответсвующих местах при запуске нового торрента. По возможности, желательно не удалять старые серии как можно дольше, чтобы релизер не столько продолжал раздавать старые серии, а смог сконцентрироваться на новых.
piratbit.org



Скачать ИП Пирогова через торрент https://img10.lostpic.net/2019/02/10/2c2484f2765ad3101910a05d60a4b7d8.jpg Скачать фильм ИП Пирогова через торрент бесплантно в хорошем качестве Описание: Освоив азы индивидуального предпринимательства, Вера Пирогова продолжает строить свой кондитерский бизнес. С маленькой домашней ... 9.1 10 10
Торрент: Зарегистрирован [2019-11-14 17:31] · скачан: 131 раз
Статус: √ проверено
Размер: 9.9 GB
Как cкачать? Как скачать ИП Пирогова через торрент | UTorrent

% Раздел Тема Автор DL S | L
TNT serials [ 5.88 GB ] ИП Пирогова / Сезон: 2 / Серии: 1-13 из 13 [2019 WEB-DL 720p] bober100 Скачать
1 | 0
TNT serials [ 4.45 GB ] ИП Пирогова / Сезон: 2 / Серии: 1-13 из 13 [2019 WEB-DLRip] bober100 Скачать
1 | 0
TNT serials [ 4.65 GB ] ИП Пирогова / Сезон: 2 / Серии: 1-13 из 13 [2019 WEB-DLRip-AVC] bober100 Скачать
1 | 0

28-11-2019 20:33  

Отключить всю рекламу на сайте

    Дорогой пользователь! Огромная просьба, поблагодарите релизера, оцените раздачу и оставьте свои комментарий, если Вы скачали ИП Пирогова через торрент бесплатно! Внесите свою лепту в развитие PiratBit!
    Комментировать посты могут только пользователи прошедшие не сложную регистрацию
    Показать сообщения:    

    ИП Пирогова через торрент
    Скачать бесплатно ИП Пирогова
    ИП Пирогова скачать торрент
    ИП Пирогова смотреть онлайн
    Cкачать фильм ИП Пирогова бесплатно
    ИП Пирогова скачать торрент в хорошем качестве
    ИП Пирогова смотреть онлайн бесплатно в хорошем качестве


    Вы не можете начинать темы
    Вы не можете отвечать на сообщения
    Вы не можете редактировать свои сообщения
    Вы не можете удалять свои сообщения
    Вы не можете голосовать в опросах
    Вы не можете прикреплять файлы к сообщениям
    Вы можете скачивать файлы