Достать ножи: Стеклянная луковица

MVO

Добыча

Дубляж

Уэнсдэй

1 сезон

Тор

Дубляж

13 клиническая

1 сезон

Жестокая ночь

MVO

Одни из нас

1 сезон

Deluxe

pack

Рекомендуем

30

Пиратка

ВАЖНО

ВАЖНО

Ghostwire

Пиратка

jed

RePack

nioh2

RePack

RDR2

RePack

NEED FOR SPEED™ PAYBACK

RePack

скачать торрент

Кинопоиск HD

Острые козырьки 6 сезон

6 сезон

FAR CRY 6

RePack

скачать торрент

Лицензия

скачать торрент

MVO

1

1 сезон

скачать торрент

1 сезон

скачать торрент

Лицензия

  

Гангстер / American Gangster (Ридли Скотт) [2007, триллер, драма, криминал, UHD BDRemux 2160p] [Расширенная Версия] Дубляж [Лицензия] + MVO + 3xAVO

Гангстер через торрент piratbit.org

Размер: 73 GB | Добавлен: 3 года 3 мес. назад | Торрент скачан:90 раз
Смотреть онлайн | Скачать | Поддержите нас   

15-10-2019 01:37 Гангстер Скачать торрент  

Гангстер / American Gangster««Это случилось однажды в Америке...»»

Год выпуска: 2007
Страна: США, Великобритания
Жанр: триллер, драма, криминал, биография
Продолжительность: 02:55:51
Перевод: Дублированный, профессиональный многоголосый, авторский
Субтитры: Русские, английские
Режиссер: Ридли Скотт
В ролях:

Дензел Вашингтон (Frank Lucas), Рассел Кроу (Richie Roberts), Чиветель Эджиофор (Huey Lucas), Лимари Надаль (Eva), Джош Бролин (Detective Trupo), Арманд Ассанте (Dominic Cattano), Роджер Гуэнвёр Смит (Nate), Руби Ди (Mama Lucas), Джон Ортис (Javier J. Rivera), Тед Левайн (Lou Toback), Джон Хоукс (Freddie Spearman), Юл Васкес (Alfonse Abruzzo)
Описание:
После смерти хозяина, Фрэнк Лукас, тихий водитель гарлемского преступного авторитета, решает создать собственную криминальную империю. Его специальность - героин, который он ввозит напрямую из Юго-Восточной Азии. Лукас считает себя бизнесменом и конкурирует с другими группировками по всем правилам рыночной экономики, предлагая более качественный продукт по более низкой цене. Зарабатывая миллион долларов в день и придерживаясь однажды установленных для себя правил игры, он становится идолом для всего Гарлема, но по следам Фрэнка уже идёт Ричи Робертс - редкий для Нью-Йорка образец честного полицейского, ненавидимого коллегами.
Рейтинг:

MPAA: R - Лицам до 17 лет обязательно присутствие взрослого
Качество: UHD BDRemux 2160p | Расширенная Версия
Формат: MKV
Видео: MPEG-H HEVC Видео 50529 кбит / с 2160p / 23,976 к / с / 16: 9 / Main 10 @ Level 5.1 @ High / 4: 2 : 0/10 бит / 1000nits / HDR10 + v1 Профиль B / BT.2020
Аудио 1: Русская, AC3 640 Кбит/сек, 6 канала(ов),16bit 48,0 КГц Дублированный (со вставками MVO на расширенные сцены)
Аудио 2: Русская, AC3 448 Кбит/сек, 6 канала(ов),16bit 48,0 КГц MVO (Киномания)
Аудио 3: Русская, AC3 448 Кбит/сек, 6 канала(ов),16bit 48,0 КГц Одноголосый (Сербин)
Аудио 4: Русская, AC3 448 Кбит/сек, 6 канала(ов),16bit 48,0 КГц Одноголосый (Гаврилов)
Аудио 5: Русская, AC3 448 Кбит/сек, 6 канала(ов),16bit 48,0 КГц Одноголосый (Гаевский)
Аудио 6: English, DTS-HD Ma 5844 Кбит/сек, 8 канала(ов),16bit 48,0 КГц
Аудио 7: English, AC3 640 Кбит/сек, 6 канала(ов),16bit 48,0 КГц
Навигация по главам: есть

Общее
Уникальный идентификатор : 247678614010760487133753206275822895879 (0xBA552A7A7049C329A97204770258C307)
Полное имя : D:\Передел\American.Gangster.2007.Unrated.2160p.UHD.Blu-Ray.Remux.x265.10bit.Master5.mkv
Формат : Matroska
Версия формата : Version 4
Размер файла : 73,0 Гбайт
Продолжительность : 2 ч. 55 м.
Режим общего битрейта : Переменный
Общий поток : 59,4 Мбит/сек
Название фильма : American.Gangster.2007.Unrated.2160p.UHD.Blu-Ray.Remux.x265.10bit.Master5
Дата кодирования : UTC 2019-10-14 21:11:59
Программа кодирования : mkvmerge v7.9.0 ('Birds') 64bit
Библиотека кодирования : libebml v1.3.1 + libmatroska v1.4.2
Обложка : Yes
Attachments : cover_land.jpg / small_cover.jpg / small_cover_land.jpg / cover.jpg / cover.jpg

Видео
Идентификатор : 1
Формат : HEVC
Формат/Информация : High Efficiency Video Coding
Коммерческое название : HDR10
Профиль формата : Main 10@L5.1@High
Идентификатор кодека : V_MPEGH/ISO/HEVC
Продолжительность : 2 ч. 55 м.
Битрейт : 50,5 Мбит/сек
Ширина : 3840 пикселей
Высота : 2160 пикселей
Соотношение сторон : 16:9
Режим частоты кадров : Постоянный
Частота кадров : 23,976 (24000/1001) кадра/сек
Цветовое пространство : YUV
Субдискретизация насыщенности : 4:2:0 (Type 2)
Битовая глубина : 10 бит
Бит/(Пиксели*Кадры) : 0.254
Размер потока : 62,0 Гбайт (85%)
Заголовок : American.Gangster.2007.Unrated.2160p.UHD.Blu-Ray.Remux.x265.10bit.Master5
Библиотека кодирования : ATEME Titan File 3.9.0 (4.9.0.0)
Язык : English
Default : Нет
Forced : Нет
Цветовой диапазон : Limited
Основные цвета : BT.2020
Характеристики трансфера : PQ
Коэффициенты матрицы : BT.2020 non-constant
MasteringDisplay_ColorPrimaries : Display P3
MasteringDisplay_Luminance : min: 0.0050 cd/m2, max: 1000 cd/m2
MaxCLL : 1179 cd/m2
MaxFALL : 501 cd/m2

Аудио #1
Идентификатор : 2
Формат : AC-3
Формат/Информация : Audio Coding 3
Коммерческое название : Dolby Digital
Идентификатор кодека : A_AC3
Продолжительность : 2 ч. 55 м.
Вид битрейта : Постоянный
Битрейт : 640 Кбит/сек
Каналы : 6 каналов
Channel layout : L R C LFE Ls Rs
Частота : 48,0 КГц
Частота кадров : 31,250 кадров/сек (1536 SPF)
Битовая глубина : 16 бит
Метод сжатия : С потерями
Размер потока : 805 Мбайт (1%)
Заголовок : Дубляж
Язык : Russian
ServiceKind/String : Complete Main
Default : Да
Forced : Нет

Аудио #2
Идентификатор : 3
Формат : AC-3
Формат/Информация : Audio Coding 3
Коммерческое название : Dolby Digital
Идентификатор кодека : A_AC3
Продолжительность : 2 ч. 55 м.
Вид битрейта : Постоянный
Битрейт : 448 Кбит/сек
Каналы : 6 каналов
Channel layout : L R C LFE Ls Rs
Частота : 48,0 КГц
Частота кадров : 31,250 кадров/сек (1536 SPF)
Битовая глубина : 16 бит
Метод сжатия : С потерями
Размер потока : 564 Мбайт (1%)
Заголовок : MVO Киномания
Язык : Russian
ServiceKind/String : Complete Main
Default : Нет
Forced : Нет

Аудио #3
Идентификатор : 4
Формат : AC-3
Формат/Информация : Audio Coding 3
Коммерческое название : Dolby Digital
Идентификатор кодека : A_AC3
Продолжительность : 2 ч. 55 м.
Вид битрейта : Постоянный
Битрейт : 448 Кбит/сек
Каналы : 6 каналов
Channel layout : L R C LFE Ls Rs
Частота : 48,0 КГц
Частота кадров : 31,250 кадров/сек (1536 SPF)
Битовая глубина : 16 бит
Метод сжатия : С потерями
Размер потока : 564 Мбайт (1%)
Заголовок : AVO Сербин
Язык : Russian
ServiceKind/String : Complete Main
Default : Нет
Forced : Нет

Аудио #4
Идентификатор : 5
Формат : AC-3
Формат/Информация : Audio Coding 3
Коммерческое название : Dolby Digital
Идентификатор кодека : A_AC3
Продолжительность : 2 ч. 55 м.
Вид битрейта : Постоянный
Битрейт : 448 Кбит/сек
Каналы : 6 каналов
Channel layout : L R C LFE Ls Rs
Частота : 48,0 КГц
Частота кадров : 31,250 кадров/сек (1536 SPF)
Битовая глубина : 16 бит
Метод сжатия : С потерями
Размер потока : 563 Мбайт (1%)
Заголовок : AVO Гаврилов
Язык : Russian
ServiceKind/String : Complete Main
Default : Нет
Forced : Нет

Аудио #5
Идентификатор : 6
Формат : AC-3
Формат/Информация : Audio Coding 3
Коммерческое название : Dolby Digital
Идентификатор кодека : A_AC3
Продолжительность : 2 ч. 55 м.
Вид битрейта : Постоянный
Битрейт : 448 Кбит/сек
Каналы : 6 каналов
Channel layout : L R C LFE Ls Rs
Частота : 48,0 КГц
Частота кадров : 31,250 кадров/сек (1536 SPF)
Битовая глубина : 16 бит
Метод сжатия : С потерями
Размер потока : 563 Мбайт (1%)
Заголовок : AVO Гаевский
Язык : Russian
ServiceKind/String : Complete Main
Default : Нет
Forced : Нет

Аудио #6
Идентификатор : 7
Формат : DTS XLL X
Формат/Информация : Digital Theater Systems
Коммерческое название : DTS-HD Master Audio
Идентификатор кодека : A_DTS
Продолжительность : 2 ч. 55 м.
Вид битрейта : Переменный
Битрейт : 5844 Кбит/сек
Каналы : 8 каналов
Channel(s)_Original : Object Based
Channel layout : Object Based
Частота : 48,0 КГц
Частота кадров : 93,750 кадра/сек (512 SPF)
Размер потока : 7,18 Гбайт (10%)
Язык : English
Default : Нет
Forced : Нет

Аудио #7
Идентификатор : 8
Формат : AC-3
Формат/Информация : Audio Coding 3
Коммерческое название : Dolby Digital
Идентификатор кодека : A_AC3
Продолжительность : 2 ч. 55 м.
Вид битрейта : Постоянный
Битрейт : 640 Кбит/сек
Каналы : 6 каналов
Channel layout : L R C LFE Ls Rs
Частота : 48,0 КГц
Частота кадров : 31,250 кадров/сек (1536 SPF)
Битовая глубина : 16 бит
Метод сжатия : С потерями
Размер потока : 805 Мбайт (1%)
Язык : English
ServiceKind/String : Complete Main
Default : Нет
Forced : Нет

Текст #1
Идентификатор : 9
Формат : UTF-8
Идентификатор кодека : S_TEXT/UTF8
Идентификатор кодека/Информация : UTF-8 Plain Text
Продолжительность : 2 ч. 48 м.
Битрейт : 96 бит/сек
ElementCount : 2377
Размер потока : 119 Кбайт (0%)
Язык : Russian
Default : Нет
Forced : Нет

Текст #2
Идентификатор : 10
Формат : UTF-8
Идентификатор кодека : S_TEXT/UTF8
Идентификатор кодека/Информация : UTF-8 Plain Text
Продолжительность : 2 ч. 46 м.
Битрейт : 68 бит/сек
ElementCount : 2372
Размер потока : 83,7 Кбайт (0%)
Язык : English
Default : Нет
Forced : Нет

Меню
00:00:00.000 : :What's Wrong with America
00:06:48.950 : :You've Been Served
00:14:07.596 : :Tampering with Evidence
00:25:43.166 : :Into the Jungle
00:32:20.271 : :Kill or Be Killed
00:37:33.918 : :Blue Magic
00:43:49.209 : :New Offensive
00:51:26.124 : :Big Money
00:57:21.855 : :Frank's Place
01:15:31.193 : :Old Friends
01:20:53.723 : :Business Is Booming
01:29:01.586 : :Special Investigations
01:37:22.503 : :Family Operated
01:44:01.985 : :On the Take
01:55:34.218 : :Ain't Gonna Run
02:04:59.450 : :Success Has Enemies
02:13:00.972 : :Search and Seizure
02:20:08.858 : :Out at Home
02:31:52.936 : :Turning Evidence
02:48:01.821 : :End Credits



Скачать Гангстер через торрент https://d.radikal.ru/d37/1910/cd/5ef53048a7c0.png Скачать, смотреть онлайн Гангстер бесплантно в хорошем качестве Описание: После смерти хозяина, Фрэнк Лукас, тихий водитель гарлемского преступного авторитета, решает создать собственную криминальную ... 10 10 7
Info! Золотая раздача, скачанное не засчитывается.
Торрент: Зарегистрирован [2019-10-15 01:37] · скачан: 90 раз
Статус: √ проверено
Размер: 73 GB
Как cкачать? Как скачать Гангстер через торрент | UTorrent

% Раздел Тема Автор DL S | L
Фильмы [HD 720p, 1080p] (Хороший звук DUB, MVO) [ 13.4 GB ] Гангстер / American Gangster | Лицензия | 1080p, (10 bit bober100 Скачать
2 | 0

28-11-2019 20:33  


Отключить вcю реклaмy на сайте, в т.ч. и в плеере онлайн просмотра!

    Дорогой пользователь! Огромная просьба, поблагодарите релизера, оцените раздачу и оставьте свои комментарий, если Вы скачали Гангстер через торрент бесплатно!!
    Комментировать посты могут только пользователи прошедшие не сложную регистрацию
    Показать сообщения:    


    Гангстер через торрент
    Скачать бесплатно Гангстер
    Гангстер скачать торрент
    Гангстер смотреть онлайн
    Cкачать фильм Гангстер бесплатно
    Гангстер скачать торрент в хорошем качестве
    Гангстер смотреть онлайн бесплатно в хорошем качестве
    Вы не можете начинать темы
    Вы не можете отвечать на сообщения
    Вы не можете редактировать свои сообщения
    Вы не можете удалять свои сообщения
    Вы не можете голосовать в опросах
    Вы не можете прикреплять файлы к сообщениям
    Вы можете скачивать файлы
    Гангстер / American Gangster [2007, триллер, драма, криминал, UHD BDRemux 2160p] [Расширенная Версия] Дубляж [Лицензия] + MVO + 3xAVO смотреть онлайн, скачать торрент picoco.icu