Ссылка на приватное зеркало нашего сайта всего за 1$. Внимание количество ограничено!!!

2 сезон

iTunes

iTunes

1

iTunes

iTunes

iTunes

WEBRip

iTunes

30
pack

Забери бонус

ВАЖНО

!!Акция!!

Alien_RageХит недели

RePack

RESIDENT EVIL 3: NEMESIS REMAKE

ИГРА 18+

pack

RePack

jed

!!Акция!!

Alien_Rage

RePack

fifa19

RePack

Assassins Creed: Odyssey

RePack

NEED FOR SPEED™ PAYBACK

4 сезон

9 сезон

Бесстыжие 9 сезон

Все сериалы

все сериалы на PB.wtf

RePack

FAR CRY 5
  

Ходячие мертвецы / The Walking Dead / Сезон: 10 / Серии: 1-15 из 15 (Эрнест Р. Дикерсон, Грег Никотеро, Гай Ферленд) [2019, Ужасы, триллер, драма, WEB-DLRip] MVO [Jaskier] piratbit.org

Ходячие мертвецы через торрент piratbit.org

Размер: 8.15 GB | Добавлен: 5 мес. 23 д. назад | Торрент скачан:26 раз
Скачать  

16-10-2019 01:31 Ходячие мертвецы Скачать торрент  

☠ Ходячие мертвецы | The Walking Dead ☠
✦ Год выпуска: 2019
✦ Страна: США
✦ Жанр: ужасы, триллер, драма
✦ Продолжительность: ~00:45:00
✦ Перевод: Профессиональный (многоголосый закадровый) | Студия Jaskier
✦ Субтитры: отсутствуют

✦ Режиссёры: Эрнест Р. Дикерсон, Грег Никотеро, Гай Ферленд

В ролях: Эндрю Линкольн, Скотт Уилсон, Данай Джекесай Гурира, Дэвид Моррисси, Стивен Юн, Лорен Коэн, Чендлер Риггз, Норман Ридус, Мелисса Сюзанн МакБрайд, Эмили Кинни, Чад Коулмэн, Сонеква Мартин и другие.

Описание: Сериал рассказывает историю жизни семьи шерифа после того, как «зомби» — эпидемия апокалиптических масштабов захлестнула земной шар. Шериф Рик Граймс путешествует со своей семьей и небольшой группой выживших в поисках безопасного места для жизни. Но постоянный страх смерти каждый день приносит тяжелые потери, заставляя героев почувствовать глубины человеческой жестокости. Рик пытается спасти свою семью, и открывает для себя, что всепоглощающий страх тех, кто выжил, может быть опаснее бессмысленных мертвецов, бродящих по земле.



✦ Качество: WEB-DLRip
✦ Формат: AVI

✦ Видео: XviD, ~ 1400 kbps, 720x400 (16:9), 23.976 fps
✦ Аудио 1: MP3, 48,0 КГц, 2 ch, 128 kbps - Rus
✦ Аудио 2: MP3, 48,0 КГц, 2 ch, 128 kbps - Eng


✦ Реклама ✦: Присутствует звуковая (два раза в начале и конце по 12 сек.)
Переведено и озвучено: студией Jaskier
Общее
Полное имя                               : Х:\Загрузки\The.Walking.Dead.S10E01.WEB-DLRip
Формат                                   : AVI
Формат/Информация                        : Audio Video Interleave
Размер файла                             : 615 Мбайт
Продолжительность                        : 51 м. 33 с.
Общий поток                              : 1668 Кбит/сек
Программа кодирования                    : VirtualDubMod 1.5.10.3 | www.virtualdub-fr.org || (build 2550/release)
Библиотека кодирования                   : VirtualDubMod build 2550/release

Видео
Идентификатор                            : 0
Формат                                   : MPEG-4 Visual
Профиль формата                          : Advanced Simple@L5
Настройки формата                        : BVOP1 / Custom Matrix
Параметр BVOP формата                    : 1
Параметр QPel формата                    : Нет
Параметр GMC формата                     : Без точки перехода
Параметр матрицы формата                 : Выборочная
Идентификатор кодека                     : XVID
Идентификатор кодека/Подсказка           : XviD
Продолжительность                        : 51 м. 33 с.
Битрейт                                  : 1398 Кбит/сек
Ширина                                   : 720 пикселей
Высота                                   : 400 пикселей
Соотношение сторон                       : 16:9
Частота кадров                           : 23,976 (24000/1001) кадра/сек
Цветовое пространство                    : YUV
Субдискретизация насыщенности            : 4:2:0
Битовая глубина                          : 8 бит
Тип развёртки                            : Прогрессивная
Метод сжатия                             : С потерями
Бит/(Пиксели*Кадры)                      : 0.202
Размер потока                            : 515 Мбайт (84%)
Библиотека кодирования                   : XviD 73

Аудио #1
Идентификатор                            : 1
Формат                                   : MPEG Audio
Версия формата                           : Version 1
Профиль формата                          : Layer 3
Настройки формата                        : Joint stereo / MS Stereo
Идентификатор кодека                     : 55
Идентификатор кодека/Подсказка           : MP3
Продолжительность                        : 51 м. 33 с.
Вид битрейта                             : Постоянный
Битрейт                                  : 128 Кбит/сек
Каналы                                   : 2 канала
Частота                                  : 48,0 КГц
Метод сжатия                             : С потерями
Размер потока                            : 47,2 Мбайт (8%)
Выравнивание                             : Соединение по промежуткам
Продолжительность промежутка             : 42  мс. (1,00 видеокадр)
Время предзагрузки промежутка            : 504  мс.

Аудио #2
Идентификатор                            : 2
Формат                                   : MPEG Audio
Версия формата                           : Version 1
Профиль формата                          : Layer 3
Настройки формата                        : Joint stereo / MS Stereo
Идентификатор кодека                     : 55
Идентификатор кодека/Подсказка           : MP3
Продолжительность                        : 51 м. 33 с.
Вид битрейта                             : Постоянный
Битрейт                                  : 128 Кбит/сек
Каналы                                   : 2 канала
Частота                                  : 48,0 КГц
Метод сжатия                             : С потерями
Размер потока                            : 47,2 Мбайт (8%)
Выравнивание                             : Соединение по промежуткам
Продолжительность промежутка             : 42  мс. (1,00 видеокадр)
Время предзагрузки промежутка            : 504  мс.
скриншот  скриншот  скриншот  
Когда раздача ведётся путём добавления новых серий, при каждом добавлении создётся новый торрент. Чтобы начать докачку новой серии, пользователям необходимо сделать следующее:
(1) остановить скачивание,
(2) удалить старый торрент у себя из клиента (старые серии удалять не надо),
(3) скачать новый торрент и запустить его у себя в клиенте вместо старого, при этом указать клиенту путь в старую папку, куда и должно происходить скачивание новых серий.
Ваш клиент при этом должен произвести хеширование (проверку) старой папки (если не производит сам - помогите ему сделать это), и будет докачивать только те серии, которых у вас ещё нет. Старые серии при этом не удаляются, а продолжают раздаваться!
Eсли вы уже удалили старые серии, то предотвратить повторную закачку старых серий можно, отжав галочку в соответсвующих местах при запуске нового торрента. По возможности, желательно не удалять старые серии как можно дольше, чтобы релизёр не столько продолжал раздавать старые серии, а смог сконцентрироваться на новых.
piratbit.org



Скачать Ходячие мертвецы через торрент https://a.radikal.ru/a22/1910/48/3c12904c8950.png Скачать фильм Ходячие мертвецы через торрент бесплантно в хорошем качестве Описание: Сериал рассказывает историю жизни семьи шерифа после того, как «зомби» — эпидемия апокалиптических масштабов захлестнула земной ... 10 10 7
Торрент: Зарегистрирован [2020-04-07 19:09] · скачан: 26 раз
Статус: √ проверено
Размер: 8.15 GB
Как cкачать? Как скачать Ходячие мертвецы через торрент | qTorrent

% Раздел Тема Автор DL S | L
Ходячие мертвецы (The Walking Dead) [ 225.23 GB ] Ходячие мертвецы / The Walking Dead / Сезон: 5 / Серии: 1-16 из 16 [2014-2015 зомби постапокалипсис BDRemux 1080p] 2xMVO [LostFilm FOX] sheker187 Скачать
1 | 0
Зарубежные сериалы [ 9.85 GB ] Ходячие мертвецы / The Walking Dead / Сезон: 10 / Серии: 1-15 из 15 [2019 WEB-DLRip] MVO [LostFilm] Эдвард Кенуэй Скачать
6 | 4
Ходячие мертвецы (The Walking Dead) [ 50.17 GB ] Ходячие мертвецы / The Walking Dead / Сезон: 10 / Серии: 1-15 из 15 [2019 WEB-DL 1080p] MVO [Jaskier] bober100 Скачать
1 | 0
Ходячие мертвецы (The Walking Dead) [ 31.14 GB ] Ходячие мертвецы / The Walking Dead / Сезон: 10 / Серии: 1-15 из 15 [2019 WEB-DL 720p] MVO [Jaskier] bober100 Скачать
1 | 0
Ходячие мертвецы (The Walking Dead) [ 52.66 GB ] Ходячие мертвецы / The Walking Dead / Сезон: 10 / Серия: 1-15 из 15 [2019 WEB-DL 1080p] MVO [LostFilm] bober100 Скачать
1 | 2
Ходячие мертвецы (The Walking Dead) [ 51.28 GB ] Ходячие мертвецы / The Walking Dead / Сезон: 10 / Серии: 1-15 из 15 [2019 WEB-DL 1080p] MVO [TVShows] bober100 Скачать
1 | 0
Ходячие мертвецы (The Walking Dead) [ 32.24 GB ] Ходячие мертвецы / The Walking Dead / Сезон: 10 / Серии: 1-15 из 15 [2019 WEB-DL 720p] MVO [TVShows] bober100 Скачать
1 | 0

28-11-2019 20:33  

Отключить всю рекламу на сайте

    Дорогой пользователь! Огромная просьба, поблагодарите релизера, оцените раздачу и оставьте свои комментарий, если Вы скачали Ходячие мертвецы через торрент бесплатно! Внесите свою лепту в развитие PiratBit!
    Комментировать посты могут только пользователи прошедшие не сложную регистрацию
    Показать сообщения:    

    Ходячие мертвецы через торрент
    Скачать бесплатно Ходячие мертвецы
    Ходячие мертвецы скачать торрент
    Ходячие мертвецы смотреть онлайн
    Cкачать фильм Ходячие мертвецы бесплатно
    Ходячие мертвецы скачать торрент в хорошем качестве
    Ходячие мертвецы смотреть онлайн бесплатно в хорошем качестве


    Вы не можете начинать темы
    Вы не можете отвечать на сообщения
    Вы не можете редактировать свои сообщения
    Вы не можете удалять свои сообщения
    Вы не можете голосовать в опросах
    Вы не можете прикреплять файлы к сообщениям
    Вы можете скачивать файлы