Marvel's Avengers Deluxe Edition (супер цена) 159р. Внимание количество ограничено!!!

2 сезон

iTunes

iTunes

1

iTunes

iTunes

iTunes

WEBRip

iTunes

30
pack

Новость дня

ВАЖНО

!!Акция!!

Alien_RageХит недели

RePack

Horizon Zero Dawn

ИГРА 18+

pack

RePack

jed

!!Акция!!

Alien_Rage

RePack

fifa19

RePack

Assassins Creed: Odyssey

RePack

NEED FOR SPEED™ PAYBACK

4 сезон

9 сезон

Бесстыжие 9 сезон

Все сериалы

все сериалы на PB.wtf

RePack

FAR CRY 5
  

Ходячие мертвецы / The Walking Dead / Сезон: 10 / Серии: 1-15 из 15 (Эрнест Р. Дикерсон, Грег Никотеро, Гай Ферленд) [2019, Ужасы, триллер, драма, WEB-DL 1080p] MVO [Jaskier] piratbit.org

Ходячие мертвецы через торрент piratbit.org

Размер: 50.17 GB | Добавлен: 5 мес. 13 д. назад | Торрент скачан:1 раз
Скачать  

16-10-2019 01:59 Ходячие мертвецы Скачать торрент  

☠ Ходячие мертвецы | The Walking Dead ☠
✦ Год выпуска: 2019
✦ Страна: США
✦ Жанр: ужасы, триллер, драма
✦ Продолжительность: ~00:45:00
✦ Перевод: Профессиональный (многоголосый закадровый) | Студия Jaskier
✦ Субтитры: английские

✦ Режиссёры: Эрнест Р. Дикерсон, Грег Никотеро, Гай Ферленд

В ролях: Эндрю Линкольн, Скотт Уилсон, Данай Джекесай Гурира, Дэвид Моррисси, Стивен Юн, Лорен Коэн, Чендлер Риггз, Норман Ридус, Мелисса Сюзанн МакБрайд, Эмили Кинни, Чад Коулмэн, Сонеква Мартин и другие.

Описание: Сериал рассказывает историю жизни семьи шерифа после того, как «зомби» — эпидемия апокалиптических масштабов захлестнула земной шар. Шериф Рик Граймс путешествует со своей семьей и небольшой группой выживших в поисках безопасного места для жизни. Но постоянный страх смерти каждый день приносит тяжелые потери, заставляя героев почувствовать глубины человеческой жестокости. Рик пытается спасти свою семью, и открывает для себя, что всепоглощающий страх тех, кто выжил, может быть опаснее бессмысленных мертвецов, бродящих по земле.



✦ Качество: WEB-DL 1080p
✦ Формат: MKV

✦ Видео: 1920x1080 (16:9) | X264/MPEG4-AVC | ~9500 kbps | 23.976 fps
✦ Аудио 1: AC3 | 48 KHz | 5.1 (Front: L С R Side: L R) + LFE | ~384 kbps [RUS]
✦ Аудио 2: AC3 | 48 KHz | 5.1 (Front: L С R Side: L R) + LFE | ~384 kbps [ENG]


✦ Реклама ✦: Присутствует звуковая (два раза в начале и конце по 12 сек.)
Переведено и озвучено: студией Jaskier
Общее
Полное имя                               : Х:\Загрузки\The.Walking.Dead.S10E01.1080p
Формат                                   : Matroska
Версия формата                           : Version 2
Размер файла                             : 3,73 Гбайт
Продолжительность                        : 51 м. 33 с.
Общий поток                              : 10,4 Мбит/сек
Дата кодирования                         : UTC 2019-10-15 21:01:15
Программа кодирования                    : mkvmerge v7.8.0 ('River Man') 32bit built on Apr  3 2015 12:11:22
Библиотека кодирования                   : libebml v1.3.1 + libmatroska v1.4.2

Видео
Идентификатор                            : 1
Формат                                   : AVC
Формат/Информация                        : Advanced Video Codec
Профиль формата                          : High@L4
Настройки формата                        : CABAC / 4 Ref Frames
Параметр CABAC формата                   : Да
Параметр RefFrames формата               : 4 кадра
Идентификатор кодека                     : V_MPEG4/ISO/AVC
Продолжительность                        : 51 м. 33 с.
Вид битрейта                             : Постоянный
Битрейт                                  : 9390 Кбит/сек
Номинальный битрейт                      : 10000 Кбит/сек
Ширина                                   : 1920 пикселей
Высота                                   : 1080 пикселей
Соотношение сторон                       : 16:9
Режим частоты кадров                     : Постоянный
Частота кадров                           : 23,976 (24000/1001) кадра/сек
Цветовое пространство                    : YUV
Субдискретизация насыщенности            : 4:2:0
Битовая глубина                          : 8 бит
Тип развёртки                            : Прогрессивная
Бит/(Пиксели*Кадры)                      : 0.189
Размер потока                            : 3,38 Гбайт (91%)
Язык                                     : English
Default                                  : Да
Forced                                   : Нет
Цветовой диапазон                        : Limited
Основные цвета                           : BT.709
Характеристики трансфера                 : BT.709
Коэффициенты матрицы                     : BT.709

Аудио #1
Идентификатор                            : 2
Формат                                   : AC-3
Формат/Информация                        : Audio Coding 3
Коммерческое название                    : Dolby Digital
Идентификатор кодека                     : A_AC3
Продолжительность                        : 51 м. 33 с.
Вид битрейта                             : Постоянный
Битрейт                                  : 384 Кбит/сек
Каналы                                   : 6 каналов
Channel layout                           : L R C LFE Ls Rs
Частота                                  : 48,0 КГц
Частота кадров                           : 31,250 кадров/сек (1536 SPF)
Битовая глубина                          : 16 бит
Метод сжатия                             : С потерями
Размер потока                            : 142 Мбайт (4%)
Заголовок                                : Jaskier
Язык                                     : Russian
ServiceKind/String                       : Complete Main
Default                                  : Да
Forced                                   : Нет

Аудио #2
Идентификатор                            : 3
Формат                                   : AC-3
Формат/Информация                        : Audio Coding 3
Коммерческое название                    : Dolby Digital
Идентификатор кодека                     : A_AC3
Продолжительность                        : 51 м. 33 с.
Вид битрейта                             : Постоянный
Битрейт                                  : 384 Кбит/сек
Каналы                                   : 6 каналов
Channel layout                           : L R C LFE Ls Rs
Частота                                  : 48,0 КГц
Частота кадров                           : 31,250 кадров/сек (1536 SPF)
Битовая глубина                          : 16 бит
Метод сжатия                             : С потерями
Размер потока                            : 142 Мбайт (4%)
Язык                                     : English
ServiceKind/String                       : Complete Main
Default                                  : Нет
Forced                                   : Нет

Текст
Идентификатор                            : 4
Формат                                   : UTF-8
Идентификатор кодека                     : S_TEXT/UTF8
Идентификатор кодека/Информация          : UTF-8 Plain Text
Язык                                     : English
Default                                  : Нет
Forced                                   : Нет
скриншот  скриншот  скриншот  
Когда раздача ведётся путём добавления новых серий, при каждом добавлении создётся новый торрент. Чтобы начать докачку новой серии, пользователям необходимо сделать следующее:
(1) остановить скачивание,
(2) удалить старый торрент у себя из клиента (старые серии удалять не надо),
(3) скачать новый торрент и запустить его у себя в клиенте вместо старого, при этом указать клиенту путь в старую папку, куда и должно происходить скачивание новых серий.
Ваш клиент при этом должен произвести хеширование (проверку) старой папки (если не производит сам - помогите ему сделать это), и будет докачивать только те серии, которых у вас ещё нет. Старые серии при этом не удаляются, а продолжают раздаваться!
Eсли вы уже удалили старые серии, то предотвратить повторную закачку старых серий можно, отжав галочку в соответсвующих местах при запуске нового торрента. По возможности, желательно не удалять старые серии как можно дольше, чтобы релизёр не столько продолжал раздавать старые серии, а смог сконцентрироваться на новых.
piratbit.org



Скачать Ходячие мертвецы через торрент https://a.radikal.ru/a22/1910/48/3c12904c8950.png Скачать фильм Ходячие мертвецы через торрент бесплантно в хорошем качестве Описание: Сериал рассказывает историю жизни семьи шерифа после того, как «зомби» — эпидемия апокалиптических масштабов захлестнула земной ... 10 10 6
Торрент: Зарегистрирован [2020-04-07 19:10] · скачан: 1 раз
Статус: √ проверено
Размер: 50.17 GB
Как cкачать? Как скачать Ходячие мертвецы через торрент | qTorrent

% Раздел Тема Автор DL S | L
Ходячие мертвецы (The Walking Dead) [ 225.23 GB ] Ходячие мертвецы / The Walking Dead / Сезон: 5 / Серии: 1-16 из 16 [2014-2015 зомби постапокалипсис BDRemux 1080p] 2xMVO [LostFilm FOX] sheker187 Скачать
1 | 0
Зарубежные сериалы [ 9.85 GB ] Ходячие мертвецы / The Walking Dead / Сезон: 10 / Серии: 1-15 из 15 [2019 WEB-DLRip] MVO [LostFilm] Эдвард Кенуэй Скачать
3 | 2
Ходячие мертвецы (The Walking Dead) [ 31.14 GB ] Ходячие мертвецы / The Walking Dead / Сезон: 10 / Серии: 1-15 из 15 [2019 WEB-DL 720p] MVO [Jaskier] bober100 Скачать
1 | 0
Ходячие мертвецы (The Walking Dead) [ 8.15 GB ] Ходячие мертвецы / The Walking Dead / Сезон: 10 / Серии: 1-15 из 15 [2019 WEB-DLRip] MVO [Jaskier] bober100 Скачать
1 | 0
Ходячие мертвецы (The Walking Dead) [ 52.66 GB ] Ходячие мертвецы / The Walking Dead / Сезон: 10 / Серия: 1-15 из 15 [2019 WEB-DL 1080p] MVO [LostFilm] bober100 Скачать
1 | 0
Ходячие мертвецы (The Walking Dead) [ 51.28 GB ] Ходячие мертвецы / The Walking Dead / Сезон: 10 / Серии: 1-15 из 15 [2019 WEB-DL 1080p] MVO [TVShows] bober100 Скачать
1 | 0
Ходячие мертвецы (The Walking Dead) [ 32.24 GB ] Ходячие мертвецы / The Walking Dead / Сезон: 10 / Серии: 1-15 из 15 [2019 WEB-DL 720p] MVO [TVShows] bober100 Скачать
1 | 0

28-11-2019 20:33  

Отключить всю рекламу на сайте

    Дорогой пользователь! Огромная просьба, поблагодарите релизера, оцените раздачу и оставьте свои комментарий, если Вы скачали Ходячие мертвецы через торрент бесплатно! Внесите свою лепту в развитие PiratBit!
    Комментировать посты могут только пользователи прошедшие не сложную регистрацию
    Показать сообщения:    

    Ходячие мертвецы через торрент
    Скачать бесплатно Ходячие мертвецы
    Ходячие мертвецы скачать торрент
    Ходячие мертвецы смотреть онлайн
    Cкачать фильм Ходячие мертвецы бесплатно
    Ходячие мертвецы скачать торрент в хорошем качестве
    Ходячие мертвецы смотреть онлайн бесплатно в хорошем качестве


    Вы не можете начинать темы
    Вы не можете отвечать на сообщения
    Вы не можете редактировать свои сообщения
    Вы не можете удалять свои сообщения
    Вы не можете голосовать в опросах
    Вы не можете прикреплять файлы к сообщениям
    Вы можете скачивать файлы