Ссылка на приватное зеркало нашего сайта всего за 1$. Внимание количество ограничено!!!

2 сезон

iTunes

1 сезон

1

iTunes

iTunes

iTunes

1 сезон

RePack

30

ИГРА 18+

pack

ВАЖНО

!!Акция!!

Alien_RageХит недели

RePack

MK11
pack

Забери бонус

RePack

jed

!!Акция!!

Alien_Rage

RePack

fifa19

RePack

Assassins Creed: Odyssey

RePack

NEED FOR SPEED™ PAYBACK

4 сезон

9 сезон

Бесстыжие 9 сезон

Все сериалы

все сериалы на PB.wtf

RePack

FAR CRY 5
  

Чудовище / L'Animal (Клод Зиди) [1977, комедия, мелодрама, боевик, BDRip (AVC) by msltel] DUB, MVO piratbit.org

Чудовище через торрент piratbit.org

Размер: 2.11 GB | Добавлен: 1 год назад | Торрент скачан:13 раз
Скачать  

16-10-2019 07:44 Чудовище Скачать торрент  

Название: Чудовище
Оригинальное название: L'Animal
Год выпуска: 1977
Страна: Франция
Жанр: комедия, мелодрама, боевик
Продолжительность: 01:40:30
Перевод: дублированный, профессиональный многоголосый

Режиссер: Клод Зиди
В ролях: Жан-Поль Бельмондо, Рэкел Уэлч, Дани Саваль, Раймон Жером, Джейн Биркин, Джонни Халлидей, Ив Мурузи, Шарль Жерар, Клод Шаброль, Марио Давид, Анри Жене, Жюльен Гиомар, Альдо Маччоне

О фильме: У каскадёра Мишеля Гоше чудовищный характер. Поэтому ни одна киностудия не хочет иметь с ним дела, а невеста готова бежать из-под венца. Но вот, в Париж на съёмки приезжает известный актер Бруно Феррари. В его новом фильме сплошные трюки, один сложнее другого. И совершенно ясно, что с ними не справиться никому, кроме Мишеля. Стоит отметить, что актёр и каскадёр похожи друг на друга, как близнецы-братья...



Качество: BDRip (AVC)
Формат: MKV
Видео: MPEG-4 AVC, 2294 Кбит/с, 1024x436
Аудио 1: русский, AC3, 256 kbps, 2 ch, 48 kHz [дублированный]
Аудио 2: русский, AC3, 256 kbps, 2 ch, 48 kHz [закадровый многоголосый, HTB - Ольга Кузнецова, Владимир Вихров и Александр Рахленко]
Аудио 3: французский, AC3, 192 kbps, 2 ch, 48 kHz [оригинал]
Главы/чаптеры
Общее
Уникальный идентификатор : 217303512646126621760216583371120178915 (0xA37B225B19839D60BA1744505CDFF6E3)
Полное имя : D:\Video\Чудовище.1977.BDRip (AVC) by msltel.mkv
Формат : Matroska
Версия формата : Version 4
Размер файла : 2,11 Гбайт
Продолжительность : 1 ч. 40 м.
Общий поток : 3000 Кбит/сек
Название фильма : Rip by msltel
Дата кодирования : UTC 2019-10-16 01:38:42
Программа кодирования : mkvmerge v8.2.0 ('World of Adventure') 64bit
Библиотека кодирования : libebml v1.3.1 + libmatroska v1.4.2

Видео
Идентификатор : 1
Формат : AVC
Формат/Информация : Advanced Video Codec
Профиль формата : High@L4.1
Настройки формата : CABAC / 9 Ref Frames
Параметр CABAC формата : Да
Параметр RefFrames формата : 9 кадров
Идентификатор кодека : V_MPEG4/ISO/AVC
Продолжительность : 1 ч. 40 м.
Битрейт : 2294 Кбит/сек
Ширина : 1024 пикселя
Высота : 436 пикселей
Соотношение сторон : 2,35:1
Режим частоты кадров : Постоянный
Частота кадров : 24,000 кадра/сек
Цветовое пространство : YUV
Субдискретизация насыщенности : 4:2:0
Битовая глубина : 8 бит
Тип развёртки : Прогрессивная
Бит/(Пиксели*Кадры) : 0.214
Размер потока : 1,61 Гбайт (76%)
Библиотека кодирования : x264 core 157 r2935 545de2f
Настройки программы : cabac=1 / ref=9 / deblock=1:-2:-2 / analyse=0x3:0x113 / me=umh / subme=11 / psy=1 / psy_rd=1.00:0.15 / mixed_ref=1 / me_range=32 / chroma_me=1 / trellis=2 / 8x8dct=1 / cqm=0 / deadzone=21,11 / fast_pskip=0 / chroma_qp_offset=-3 / threads=6 / lookahead_threads=1 / sliced_threads=0 / nr=0 / decimate=1 / interlaced=0 / bluray_compat=0 / constrained_intra=0 / bframes=6 / b_pyramid=2 / b_adapt=2 / b_bias=0 / direct=1 / weightb=1 / open_gop=0 / weightp=2 / keyint=230 / keyint_min=23 / scenecut=40 / intra_refresh=0 / rc_lookahead=40 / rc=crf / mbtree=1 / crf=17.8 / qcomp=0.60 / qpmin=0 / qpmax=69 / qpstep=4 / vbv_maxrate=50000 / vbv_bufsize=62500 / crf_max=0.0 / nal_hrd=none / filler=0 / ip_ratio=1.40 / aq=1:1.00
Язык : French
Default : Да
Forced : Нет

Аудио #1
Идентификатор : 2
Формат : AC-3
Формат/Информация : Audio Coding 3
Коммерческое название : Dolby Digital
Идентификатор кодека : A_AC3
Продолжительность : 1 ч. 40 м.
Вид битрейта : Постоянный
Битрейт : 256 Кбит/сек
Каналы : 2 канала
ChannelLayout : L R
Частота : 48,0 КГц
Частота кадров : 31,250 кадров/сек (1536 SPF)
Метод сжатия : С потерями
Размер потока : 184 Мбайт (9%)
Заголовок : DUB
Язык : Russian
ServiceKind/String : Complete Main
Default : Да
Forced : Нет

Аудио #2
Идентификатор : 3
Формат : AC-3
Формат/Информация : Audio Coding 3
Коммерческое название : Dolby Digital
Идентификатор кодека : A_AC3
Продолжительность : 1 ч. 40 м.
Вид битрейта : Постоянный
Битрейт : 256 Кбит/сек
Каналы : 2 канала
ChannelLayout : L R
Частота : 48,0 КГц
Частота кадров : 31,250 кадров/сек (1536 SPF)
Метод сжатия : С потерями
Размер потока : 184 Мбайт (9%)
Заголовок : MVO HTB
Язык : Russian
ServiceKind/String : Complete Main
Default : Нет
Forced : Нет

Аудио #3
Идентификатор : 4
Формат : AC-3
Формат/Информация : Audio Coding 3
Коммерческое название : Dolby Digital
Идентификатор кодека : A_AC3
Продолжительность : 1 ч. 40 м.
Вид битрейта : Постоянный
Битрейт : 192 Кбит/сек
Каналы : 2 канала
ChannelLayout : L R
Частота : 48,0 КГц
Частота кадров : 31,250 кадров/сек (1536 SPF)
Метод сжатия : С потерями
Размер потока : 138 Мбайт (6%)
Заголовок : original
Язык : French
ServiceKind/String : Complete Main
Default : Нет
Forced : Нет

Меню
00:00:00.000 : en:Chapter 01
00:08:44.250 : en:Chapter 02
00:18:11.666 : en:Chapter 03
00:27:17.875 : en:Chapter 04
00:35:50.750 : en:Chapter 05
00:45:33.291 : en:Chapter 06
00:53:34.000 : en:Chapter 07
01:02:57.541 : en:Chapter 08
01:11:34.708 : en:Chapter 09
01:22:39.958 : en:Chapter 10
01:29:49.375 : en:Chapter 11
01:37:44.541 : en:Chapter 12
piratbit.org



Скачать Чудовище через торрент https://c.radikal.ru/c35/1910/86/1d96b9e88df6.jpg Скачать фильм Чудовище через торрент бесплантно в хорошем качестве О фильме: У каскадёра Мишеля Гоше чудовищный характер. Поэтому ни одна кино не хочет иметь с ним дела, а невеста готова бежать из-под ... 10 10 2
Торрент: Зарегистрирован [2019-10-16 07:44] · скачан: 13 раз
Статус: √ проверено
Размер: 2.11 GB
Как cкачать? Как скачать Чудовище через торрент | qTorrent

28-11-2019 20:33  

Отключить всю рекламу на сайте

    Дорогой пользователь! Огромная просьба, поблагодарите релизера, оцените раздачу и оставьте свои комментарий, если Вы скачали Чудовище через торрент бесплатно! Внесите свою лепту в развитие PiratBit!
    Комментировать посты могут только пользователи прошедшие не сложную регистрацию
    Показать сообщения:    

    Чудовище через торрент
    Скачать бесплатно Чудовище
    Чудовище скачать торрент
    Чудовище смотреть онлайн
    Cкачать фильм Чудовище бесплатно
    Чудовище скачать торрент в хорошем качестве
    Чудовище смотреть онлайн бесплатно в хорошем качестве


    Вы не можете начинать темы
    Вы не можете отвечать на сообщения
    Вы не можете редактировать свои сообщения
    Вы не можете удалять свои сообщения
    Вы не можете голосовать в опросах
    Вы не можете прикреплять файлы к сообщениям
    Вы можете скачивать файлы