Достать ножи: Стеклянная луковица

MVO

Добыча

Дубляж

Уэнсдэй

1 сезон

Тор

Дубляж

13 клиническая

1 сезон

Жестокая ночь

MVO

Одни из нас

1 сезон

Deluxe

pack

Рекомендуем

30

Пиратка

ВАЖНО

ВАЖНО

Ghostwire

Пиратка

jed

RePack

nioh2

RePack

RDR2

RePack

NEED FOR SPEED™ PAYBACK

RePack

скачать торрент

Кинопоиск HD

Острые козырьки 6 сезон

6 сезон

FAR CRY 6

RePack

скачать торрент

Лицензия

скачать торрент

MVO

1

1 сезон

скачать торрент

1 сезон

скачать торрент

Лицензия

  

Путь: Во все тяжкие / El Camino: A Breaking Bad Movie (Винс Гиллиган) [2019, драма, криминал, UHD WEB-DLRip 2160p] [SDR] DVO [Кубик в кубе]

Путь: Во все тяжкие через торрент piratbit.org

Размер: 34.1 GB | Добавлен: 3 года 3 мес. назад | Торрент скачан:65 раз
Смотреть онлайн | Скачать | Поддержите нас   

16-10-2019 18:13 Путь: Во все тяжкие Скачать торрент  

Путь: Во все тяжкие. Фильм / El Camino: A Breaking Bad Movie
Год выпуска: 2019
Страна: США
Жанр: драма, криминал
Продолжительность: 02:02:42
Перевод: Двухголосый закадровый | Кубик в кубе
Субтитры: English (SDH)

Режиссер: Винс Гиллиган

rating


В ролях: Аарон Пол, Мэтт Джонс, Джонатан Бэнкс, Чарльз Бэйкер, Ларри Хэнкин и др.

Описание: Джесси Пинкман сбежал от неонацистов. Не зная, куда ему податься, он скрывается от полиции, похитителей и прошлого. Теперь он должен понять, как ему жить дальше.

Качество: UHD WEB-DLRip 2160p
Формат: MKV

Видео: MPEG-4 AVC SDR, 37.5 Мбит/с, 3840x1604, 24 кадр/с, 8 бит
Аудио#1: (E-AC3, 6 ch, 768 Кбит/с, 48.0 KHz)_Профессиональный двухголосый [Кубик в кубе]
Аудио#2: English: (E-АС3 Dolby Atmos, 6 ch, 768 Кбит/с, 48.0 KHz)
скриншот  скриншот  скриншот  

скриншот  скриншот  скриншот  

Общее
Уникальный идентификатор : 72594931963604734527908450077240368092 (0x369D467BE46BEEB5F8D8EA116FB29BDC)
Полное имя : D:\Новая папкаVid\Новая_Мои раздачи\El.Camino.A.Breaking.Bad.Movie.2019.2160p.WEBRip.KvK.CasStudio.TK.mkv
Формат : Matroska
Версия формата : Version 4
Размер файла : 34,1 Гбайт
Продолжительность : 2 ч. 2 м.
Общий поток : 39,8 Мбит/сек
Название фильма : El Camino: A Breaking Bad Movie (2019) - release by messafan for CasStudio.TK
Дата кодирования : UTC 2019-10-15 19:08:33
Программа кодирования : mkvmerge v34.0.0 ('Sight and Seen') 64-bit
Библиотека кодирования : libebml v1.3.7 + libmatroska v1.5.0
FileExtension_Invalid : mkv mk3d mka mks

Видео
Идентификатор : 1
Формат : AVC
Формат/Информация : Advanced Video Codec
Профиль формата : High@L5.1
Настройки формата : CABAC / 7 Ref Frames
Параметр CABAC формата : Да
Параметр RefFrames формата : 7 кадров
Идентификатор кодека : V_MPEG4/ISO/AVC
Продолжительность : 2 ч. 2 м.
Битрейт : 37,5 Мбит/сек
Ширина : 3840 пикселей
Высота : 1604 пикселя
Соотношение сторон : 2,40:1
Режим частоты кадров : Постоянный
Частота кадров : 24,000 кадра/сек
Цветовое пространство : YUV
Субдискретизация насыщенности : 4:2:0
Битовая глубина : 8 бит
Тип развёртки : Прогрессивная
Бит/(Пиксели*Кадры) : 0.253
Размер потока : 32,1 Гбайт (94%)
Библиотека кодирования : x264 core 158 r2984+47 456d10a t_mod_New [0-bit@all X86_64]
Настройки программы : cabac=1 / ref=7 / deblock=1:-3:-3 / analyse=0x3:0x133 / me=umh / subme=10 / psy=1 / fade_compensate=0.00 / psy_rd=1.00:0.15 / mixed_ref=1 / me_range=48 / chroma_me=1 / trellis=2 / 8x8dct=1 / cqm=0 / deadzone=21,11 / fast_pskip=0 / chroma_qp_offset=-3 / threads=12 / lookahead_threads=2 / sliced_threads=0 / nr=0 / decimate=0 / interlaced=0 / bluray_compat=0 / constrained_intra=0 / fgo=0 / bframes=8 / b_pyramid=2 / b_adapt=2 / b_bias=0 / direct=3 / weightb=1 / open_gop=0 / weightp=2 / keyint=250 / keyint_min=24 / scenecut=40 / intra_refresh=0 / rc=crf / mbtree=0 / crf=18.0000 / qcomp=0.60 / qpmin=0:0:0 / qpmax=69:69:69 / qpstep=4 / ip_ratio=1.30 / pb_ratio=1.20 / aq=3:0.80 / aq-sensitivity=10.00 / aq-factor=1.00:1.00:1.00 / aq2=0 / aq3=0
Язык : English
Default : Да
Forced : Нет

Аудио #1
Идентификатор : 2
Формат : E-AC-3
Формат/Информация : Enhanced AC-3
Коммерческое название : Dolby Digital Plus
Идентификатор кодека : A_EAC3
Продолжительность : 2 ч. 2 м.
Вид битрейта : Постоянный
Битрейт : 768 Кбит/сек
Каналы : 6 каналов
Channel layout : L R C LFE Ls Rs
Частота : 48,0 КГц
Частота кадров : 31,250 кадров/сек (1536 SPF)
Метод сжатия : С потерями
Размер потока : 674 Мбайт (2%)
Заголовок : KvK DD5.1 @ 768kbps
Язык : Russian
ServiceKind/String : Complete Main
Default : Да
Forced : Нет

Аудио #2
Идентификатор : 3
Формат : E-AC-3 JOC
Формат/Информация : Enhanced AC-3 with Joint Object Coding
Коммерческое название : Dolby Digital Plus with Dolby Atmos
Идентификатор кодека : A_EAC3
Продолжительность : 2 ч. 2 м.
Вид битрейта : Постоянный
Битрейт : 768 Кбит/сек
Каналы : 6 каналов
Channel layout : L R C LFE Ls Rs
Частота : 48,0 КГц
Частота кадров : 31,250 кадров/сек (1536 SPF)
Метод сжатия : С потерями
Размер потока : 674 Мбайт (2%)
Заголовок : English DD5.1 @ 768kbps
Язык : English
ServiceKind/String : Complete Main
Default : Нет
Forced : Нет
Complexity index : 16
Number of dynamic objects : 15
Bed channel count : 1 канал
Bed channel configuration : LFE

Текст
Идентификатор : 4
Формат : UTF-8
Идентификатор кодека : S_TEXT/UTF8
Идентификатор кодека/Информация : UTF-8 Plain Text
Заголовок : SDH
Язык : English
Default : Нет
Forced : Нет




Скачать Путь: Во все тяжкие через торрент https://a.radikal.ru/a42/1910/52/e933678e9a61.jpg Скачать, смотреть онлайн Путь: Во все тяжкие бесплантно в хорошем качестве Описание: Джесси Пинкман сбежал от неонацистов. Не зная, куда ему податься, он скрывается от полиции, похитителей и прошлого. Теперь он ... 10 10 3
Info! Золотая раздача, скачанное не засчитывается.
Торрент: Зарегистрирован [2019-10-16 18:13] · скачан: 65 раз
Статус: √ проверено
Размер: 34.1 GB
Как cкачать? Как скачать Путь: Во все тяжкие через торрент | UTorrent

% Раздел Тема Автор DL S | L
Фильмы 2019-2020 [DVDrip, WEB-DLRip, HDrip] (DUB, MVO) [ 2.18 GB ] El Camino: Во все тяжкие / Путь: Во все тяжкие / El Camino: A Breaking Bad Movie | Jaskier | BDRip bober100 Скачать
1 | 0
Фильмы [HD 720p, 1080p] (Хороший звук DUB, MVO) [ 14.67 GB ] El Camino: Во все тяжкие / Путь: Во все тяжкие / El Camino: A Breaking Bad Movie | Jaskier | 1080p Enigma2010 Скачать
10 | 0
Фильмы 2019-2020 [DVDrip, WEB-DLRip, HDrip] (DUB, MVO) [ 1.46 GB ] El Camino: Во все тяжкие / Путь: Во все тяжкие / El Camino: A Breaking Bad Movie | LostFilm | BDRip bober100 Скачать
1 | 0
Фильмы 2019-2020 [DVDrip, WEB-DLRip, HDrip] (DUB, MVO) [ 2.18 GB ] El Camino: Во все тяжкие / Путь: Во все тяжкие / El Camino: A Breaking Bad Movie | LostFilm | BDRip bober100 Скачать
1 | 0
Фильмы 2019-2020 [DVDrip, WEB-DLRip, HDrip] (DUB, MVO) [ 1.46 GB ] Путь: Во все тяжкие / El Camino: A Breaking Bad Movie | | DLRip bober100 Скачать
1 | 0
Фильмы 2019-2020 [DVDrip, WEB-DLRip, HDrip] (DUB, MVO) [ 3.31 GB ] Путь: Во все тяжкие / El Camino: A Breaking Bad Movie | Jaskier | DLRip-AVC Enigma2010 Скачать
3 | 0
Фильмы (WEB-DL 720p, 1080p) [ 11.89 GB ] Путь: Во все тяжкие / El Camino: A Breaking Bad Movie | Jaskier | 1080p Enigma2010 Скачать
4 | 0

28-11-2019 20:33  


Отключить вcю реклaмy на сайте, в т.ч. и в плеере онлайн просмотра!

    Дорогой пользователь! Огромная просьба, поблагодарите релизера, оцените раздачу и оставьте свои комментарий, если Вы скачали Путь: Во все тяжкие через торрент бесплатно!!
    Комментировать посты могут только пользователи прошедшие не сложную регистрацию
    Показать сообщения:    


    Путь: Во все тяжкие через торрент
    Скачать бесплатно Путь: Во все тяжкие
    Путь: Во все тяжкие скачать торрент
    Путь: Во все тяжкие смотреть онлайн
    Cкачать фильм Путь: Во все тяжкие бесплатно
    Путь: Во все тяжкие скачать торрент в хорошем качестве
    Путь: Во все тяжкие смотреть онлайн бесплатно в хорошем качестве
    Вы не можете начинать темы
    Вы не можете отвечать на сообщения
    Вы не можете редактировать свои сообщения
    Вы не можете удалять свои сообщения
    Вы не можете голосовать в опросах
    Вы не можете прикреплять файлы к сообщениям
    Вы можете скачивать файлы
    Путь: Во все тяжкие / El Camino: A Breaking Bad Movie [2019, драма, криминал, UHD WEB-DLRip 2160p] [SDR] DVO [Кубик в кубе] смотреть онлайн, скачать торрент picoco.icu