Достать ножи: Стеклянная луковица

MVO

Добыча

Дубляж

Уэнсдэй

1 сезон

Тор

Дубляж

13 клиническая

1 сезон

Жестокая ночь

MVO

Одни из нас

1 сезон

Deluxe

pack

Рекомендуем

30

Пиратка

ВАЖНО

ВАЖНО

Ghostwire

Пиратка

jed

RePack

nioh2

RePack

RDR2

RePack

NEED FOR SPEED™ PAYBACK

RePack

скачать торрент

Кинопоиск HD

Острые козырьки 6 сезон

6 сезон

FAR CRY 6

RePack

скачать торрент

Лицензия

скачать торрент

MVO

1

1 сезон

скачать торрент

1 сезон

скачать торрент

Лицензия

  

El Camino: Во все тяжкие / El Camino: A Breaking Bad Movie (Винс Гиллиган) [2019, драма, криминал, UHD WEB-DL 2160p] DVO + 2xMVO

El Camino: Во все тяжкие через торрент piratbit.org

Размер: 18.77 GB | Добавлен: 3 года 3 мес. назад | Торрент скачан:73 раза
Смотреть онлайн | Скачать | Поддержите нас   

17-10-2019 17:54 El Camino: Во все тяжкие Скачать торрент  

El Camino: Во все тяжкие / El Camino: A Breaking Bad Movie

Год выпуска: 2019
Страна: США
Жанр: драма, криминал
Продолжительность: 02:02:42
Перевод: Профессиональный многоголосый, профессиональный двухголосый
Субтитры: Русские, английские
Режиссер: Винс Гиллиган
В ролях:

Аарон Пол (Jesse), Джонатан Бэнкс (Mike), Мэтт Джонс (Badger), Чарльз Бэйкер (Skinny Pete), Тодд Терри (SAC Ramey), Джули Перл (ADA Ericsen), Gregory Steven Soliz (TV News Anchor), Ларри Хэнкин (Old Joe), Джесси Племонс (Todd), Том Бауэр (Lou), Глория Сандоваль (Sonia), Тесс Харпер (Mrs. Pinkman)
Описание:
Джесси Пинкман сбежал от неонацистов. Не зная, куда ему податься, он скрывается от полиции, похитителей и прошлого. Теперь он должен понять, как ему жить дальше.
Рейтинг:

Качество: UHD WEB-DL 2160p
Формат: MKV
Видео: HEVC HDR, 19000 Кбит/с, 3840x1604, 23.976 кадр/с, 10 бит
Aудио#1: [RUS] AC3 | 48 KHz | 5.1 ch | 448 kbps - Кубик в Кубе_Профессиональный (двухголосый закадровый)
Aудио#2: [RUS] AC3 | 48 KHz | 5.1 ch | 640 kbps - Jaskier_Профессиональный (многоголосый закадровый)
Aудио#3: [RUS] E-АС3 Dolby Atmos | 48 KHz | 5.1 ch | 768 kbps - LostFilm_Профессиональный (многоголосый закадровый)
Aудио#4: [RUS] AC3 | 48 KHz | 2.1 ch | 384 kbps - LostFilm_Профессиональный (многоголосый закадровый)
Aудио#5: [ENG] E-АС3 Dolby Atmos | 48 KHz | 5.1 ch | 768 kbps

Общее
Уникальный идентификатор : 197838841838062320263871812811634346582 (0x94D65FFDC395F31DA2EAA08E01D58A56)
Полное имя : D:\Передел\El.Camino.A.Breaking.Bad.Movie.2019.WEB-DL.WEB-DL.2160p.X265.10bit.HDR.Master5.mkv
Формат : Matroska
Версия формата : Version 4
Размер файла : 18,8 Гбайт
Продолжительность : 2 ч. 2 м.
Общий поток : 21,9 Мбит/сек
Название фильма : El.Camino.A.Breaking.Bad.Movie.2019.WEB-DL.WEB-DL.2160p.X265.10bit.HDR.Master5
Дата кодирования : UTC 2019-10-17 12:58:51
Программа кодирования : mkvmerge v7.9.0 ('Birds') 64bit
Библиотека кодирования : libebml v1.3.1 + libmatroska v1.4.2
Обложка : Yes
Attachments : small_cover.jpg / cover.jpg

Видео
Идентификатор : 1
Формат : HEVC
Формат/Информация : High Efficiency Video Coding
Коммерческое название : HDR10
Профиль формата : Main 10@L5@Main
Идентификатор кодека : V_MPEGH/ISO/HEVC
Продолжительность : 2 ч. 2 м.
Битрейт : 19,0 Мбит/сек
Ширина : 3840 пикселей
Высота : 1604 пикселя
Соотношение сторон : 2,40:1
Режим частоты кадров : Постоянный
Частота кадров : 24,000 кадра/сек
Цветовое пространство : YUV
Субдискретизация насыщенности : 4:2:0
Битовая глубина : 10 бит
Бит/(Пиксели*Кадры) : 0.128
Размер потока : 16,2 Гбайт (86%)
Заголовок : El.Camino.A.Breaking.Bad.Movie.2019.WEB-DL.WEB-DL.2160p.X265.10bit.HDR.Master5
Библиотека кодирования : x265 3.1_RC1+3-3bdf06e3c628:[Windows][MSVC 1921][64 bit] 10bit
Настройки программы : cpuid=1111039 / frame-threads=4 / numa-pools=28 / wpp / no-pmode / no-pme / no-psnr / no-ssim / log-level=2 / input-csp=1 / input-res=3840x1604 / interlace=0 / total-frames=0 / level-idc=0 / high-tier=1 / uhd-bd=0 / ref=5 / no-allow-non-conformance / repeat-headers / annexb / no-aud / no-hrd / info / hash=0 / no-temporal-layers / open-gop / min-keyint=24 / keyint=250 / gop-lookahead=0 / bframes=8 / b-adapt=2 / b-pyramid / bframe-bias=0 / rc-lookahead=40 / lookahead-slices=0 / scenecut=40 / radl=0 / no-splice / no-intra-refresh / ctu=64 / min-cu-size=8 / no-rect / no-amp / max-tu-size=32 / tu-inter-depth=3 / tu-intra-depth=3 / limit-tu=0 / rdoq-level=1 / dynamic-rd=0.00 / no-ssim-rd / signhide / no-tskip / nr-intra=0 / nr-inter=0 / no-constrained-intra / strong-intra-smoothing / max-merge=5 / limit-refs=0 / no-limit-modes / me=3 / subme=4 / merange=57 / temporal-mvp / weightp / weightb / no-analyze-src-pics / deblock=0:0 / no-sao / no-sao-non-deblock / rd=6 / no-early-skip / rskip / no-fast-intra / no-tskip-fast / no-cu-lossless / b-intra / no-splitrd-skip / rdpenalty=0 / psy-rd=4.00 / psy-rdoq=8.00 / no-rd-refine / no-lossless / cbqpoffs=0 / crqpoffs=0 / rc=crf / crf=18.0 / qcomp=0.60 / qpstep=4 / stats-write=0 / stats-read=0 / ipratio=1.40 / pbratio=1.30 / aq-mode=2 / aq-strength=1.00 / cutree / zone-count=0 / no-strict-cbr / qg-size=32 / no-rc-grain / qpmax=69 / qpmin=0 / no-const-vbv / sar=0 / overscan=0 / videoformat=5 / range=0 / colorprim=9 / transfer=16 / colormatrix=9 / chromaloc=0 / display-window=0 / master-display=G(13250,34500)B(7500,3000)R(34000,16000)WP(15635,16450)L(40000000,50)cll=4850,1668 / min-luma=0 / max-luma=1023 / log2-max-poc-lsb=8 / vui-timing-info / vui-hrd-info / slices=1 / no-opt-qp-pps / no-opt-ref-list-length-pps / no-multi-pass-opt-rps / scenecut-bias=0.05 / no-opt-cu-delta-qp / no-aq-motion / hdr / hdr-opt / no-dhdr10-opt / no-idr-recovery-sei / analysis-reuse-level=5 / scale-factor=0 / refine-intra=0 / refine-inter=0 / refine-mv=0 / refine-ctu-distortion=0 / no-limit-sao / ctu-info=0 / no-lowpass-dct / refine-analysis-type=0 / copy-pic=1 / max-ausize-factor=1.0 / no-dynamic-refine / no-single-sei / no-hevc-aq / no-svt / no-field / qp-adaptation-range=1.00
Default : Да
Forced : Нет
Цветовой диапазон : Limited
Основные цвета : BT.2020
Характеристики трансфера : PQ
Коэффициенты матрицы : BT.2020 non-constant
MasteringDisplay_ColorPrimaries : Display P3
MasteringDisplay_Luminance : min: 0.0050 cd/m2, max: 4000 cd/m2
MaxCLL : 4850 cd/m2
MaxFALL : 1668 cd/m2

Аудио #1
Идентификатор : 2
Формат : AC-3
Формат/Информация : Audio Coding 3
Коммерческое название : Dolby Digital
Идентификатор кодека : A_AC3
Продолжительность : 2 ч. 2 м.
Вид битрейта : Постоянный
Битрейт : 448 Кбит/сек
Каналы : 6 каналов
Channel layout : L R C LFE Ls Rs
Частота : 48,0 КГц
Частота кадров : 31,250 кадров/сек (1536 SPF)
Битовая глубина : 16 бит
Метод сжатия : С потерями
Размер потока : 393 Мбайт (2%)
Заголовок : Кубик в кубе
Язык : Russian
ServiceKind/String : Complete Main
Default : Да
Forced : Нет

Аудио #2
Идентификатор : 3
Формат : AC-3
Формат/Информация : Audio Coding 3
Коммерческое название : Dolby Digital
Идентификатор кодека : A_AC3
Продолжительность : 2 ч. 2 м.
Вид битрейта : Постоянный
Битрейт : 640 Кбит/сек
Каналы : 6 каналов
Channel layout : L R C LFE Ls Rs
Частота : 48,0 КГц
Частота кадров : 31,250 кадров/сек (1536 SPF)
Битовая глубина : 16 бит
Метод сжатия : С потерями
Размер потока : 562 Мбайт (3%)
Заголовок : MVO (Jaskier)
Язык : Russian
ServiceKind/String : Complete Main
Default : Нет
Forced : Нет

Аудио #3
Идентификатор : 4
Формат : E-AC-3
Формат/Информация : Enhanced AC-3
Коммерческое название : Dolby Digital Plus
Идентификатор кодека : A_EAC3
Продолжительность : 2 ч. 2 м.
Вид битрейта : Постоянный
Битрейт : 768 Кбит/сек
Каналы : 6 каналов
Channel layout : L R C LFE Ls Rs
Частота : 48,0 КГц
Частота кадров : 31,250 кадров/сек (1536 SPF)
Метод сжатия : С потерями
Размер потока : 674 Мбайт (4%)
Заголовок : EAC3 5.1 @ 768kbps - MVO, Lostfilm
Язык : Russian
ServiceKind/String : Complete Main
Default : Нет
Forced : Нет

Аудио #4
Идентификатор : 5
Формат : AC-3
Формат/Информация : Audio Coding 3
Коммерческое название : Dolby Digital
Идентификатор кодека : A_AC3
Продолжительность : 2 ч. 2 м.
Вид битрейта : Постоянный
Битрейт : 384 Кбит/сек
Каналы : 2 канала
Channel layout : L R
Частота : 48,0 КГц
Частота кадров : 31,250 кадров/сек (1536 SPF)
Битовая глубина : 16 бит
Метод сжатия : С потерями
Размер потока : 337 Мбайт (2%)
Заголовок : MVO (LostFilm)
Язык : Russian
ServiceKind/String : Complete Main
Default : Нет
Forced : Нет

Аудио #5
Идентификатор : 6
Формат : E-AC-3 JOC
Формат/Информация : Enhanced AC-3 with Joint Object Coding
Коммерческое название : Dolby Digital Plus with Dolby Atmos
Идентификатор кодека : A_EAC3
Продолжительность : 2 ч. 2 м.
Вид битрейта : Постоянный
Битрейт : 768 Кбит/сек
Каналы : 6 каналов
Channel layout : L R C LFE Ls Rs
Частота : 48,0 КГц
Частота кадров : 31,250 кадров/сек (1536 SPF)
Метод сжатия : С потерями
Размер потока : 674 Мбайт (4%)
Заголовок : EAC3 5.1 @ 768kbps - Original
Язык : English
ServiceKind/String : Complete Main
Default : Нет
Forced : Нет
Complexity index : 16
Number of dynamic objects : 15
Bed channel count : 1 канал
Bed channel configuration : LFE

Текст #1
Идентификатор : 7
Формат : PGS
Режим смешивания : zlib
Идентификатор кодека : S_HDMV/PGS
Идентификатор кодека/Информация : Picture based subtitle format used on BDs/HD-DVDs
Продолжительность : 1 ч. 54 м.
Битрейт : 99 бит/сек
ElementCount : 20
Размер потока : 83,2 Кбайт (0%)
Заголовок : Forced
Язык : Russian
Default : Да
Forced : Да

Текст #2
Идентификатор : 8
Формат : UTF-8
Идентификатор кодека : S_TEXT/UTF8
Идентификатор кодека/Информация : UTF-8 Plain Text
Продолжительность : 2 ч. 1 м.
Битрейт : 60 бит/сек
ElementCount : 1175
Размер потока : 54,1 Кбайт (0%)
Язык : Russian
Default : Нет
Forced : Нет

Текст #3
Идентификатор : 9
Формат : UTF-8
Идентификатор кодека : S_TEXT/UTF8
Идентификатор кодека/Информация : UTF-8 Plain Text
Продолжительность : 2 ч. 1 м.
Битрейт : 60 бит/сек
ElementCount : 1175
Размер потока : 54,1 Кбайт (0%)
Заголовок : Netflix
Язык : Russian
Default : Нет
Forced : Нет

Текст #4
Идентификатор : 10
Формат : UTF-8
Идентификатор кодека : S_TEXT/UTF8
Идентификатор кодека/Информация : UTF-8 Plain Text
Продолжительность : 2 ч. 1 м.
Битрейт : 51 бит/сек
ElementCount : 1544
Размер потока : 46,2 Кбайт (0%)
Заголовок : SDH
Язык : English
Default : Нет
Forced : Нет

Текст #5
Идентификатор : 11
Формат : UTF-8
Идентификатор кодека : S_TEXT/UTF8
Идентификатор кодека/Информация : UTF-8 Plain Text
Продолжительность : 2 ч. 1 м.
Битрейт : 51 бит/сек
ElementCount : 1544
Размер потока : 46,2 Кбайт (0%)
Язык : English
Default : Нет
Forced : Нет



Скачать El Camino: Во все тяжкие через торрент https://b.radikal.ru/b04/1910/4b/af69dd7435f8.png Скачать, смотреть онлайн El Camino: Во все тяжкие бесплантно в хорошем качестве Описание: Джесси Пинкман сбежал от неонацистов. Не зная, куда ему податься, он скрывается от полиции, похитителей и прошлого. Теперь он ... 10 10 3
Торрент: Зарегистрирован [2019-10-17 17:54] · скачан: 73 раз
Статус: √ проверено
Размер: 18.77 GB
Как cкачать? Как скачать El Camino: Во все тяжкие через торрент | UTorrent

% Раздел Тема Автор DL S | L
Ultra HD (UHD: 2K, 4K, 8K) [ 35.53 GB ] El Camino: Во все тяжкие / El Camino: A Breaking Bad Movie | MVO | 2160p sheker187 Скачать
1 | 0

28-11-2019 20:33  


Отключить вcю реклaмy на сайте, в т.ч. и в плеере онлайн просмотра!

    Дорогой пользователь! Огромная просьба, поблагодарите релизера, оцените раздачу и оставьте свои комментарий, если Вы скачали El Camino: Во все тяжкие через торрент бесплатно!!
    Комментировать посты могут только пользователи прошедшие не сложную регистрацию
    Показать сообщения:    


    El Camino: Во все тяжкие через торрент
    Скачать бесплатно El Camino: Во все тяжкие
    El Camino: Во все тяжкие скачать торрент
    El Camino: Во все тяжкие смотреть онлайн
    Cкачать фильм El Camino: Во все тяжкие бесплатно
    El Camino: Во все тяжкие скачать торрент в хорошем качестве
    El Camino: Во все тяжкие смотреть онлайн бесплатно в хорошем качестве
    Вы не можете начинать темы
    Вы не можете отвечать на сообщения
    Вы не можете редактировать свои сообщения
    Вы не можете удалять свои сообщения
    Вы не можете голосовать в опросах
    Вы не можете прикреплять файлы к сообщениям
    Вы можете скачивать файлы
    El Camino: Во все тяжкие / El Camino: A Breaking Bad Movie [2019, драма, криминал, UHD WEB-DL 2160p] DVO + 2xMVO смотреть онлайн, скачать торрент picoco.icu