1 сезон

1 сезон

iTunes

1

iTunes

Кинопоиск HD

iTunes

13

1 сезон

RePack

30

Deluxe

ВАЖНО

ИГРА 18+

pack

RePack

MK11
pack

Легкие деньги

RePack

jed

RePack

fifa19

RePack

RDR2

RePack

NEED FOR SPEED™ PAYBACK

4 сезон

9 сезон

Бесстыжие 9 сезон

Все сериалы

все сериалы на PB.wtf

RePack

FAR CRY 5
  
Magnet ссылка

Интим / Intimacy (Патрис Шеро) [2001, драма, мелодрама, BDRip (AVC) by msltel] MVO, 2 x AVO piratbit.org

Интим через торрент piratbit.org

Размер: 4.03 GB | Добавлен: 1 год 6 мес. назад | Торрент скачан:48 раз
Скачать  

19-10-2019 09:12 Интим Скачать торрент  

Название: Интим
Оригинальное название: Intimacy
Год выпуска: 2001
Страна: Германия, Франция, Великобритания, Испания
Жанр: драма, мелодрама
Продолжительность: 01:59:52
Перевод: профессиональный многоголосый, авторский

Режиссер: Патрис Шеро
В ролях: Марк Райлэнс, Керри Фокс, Сюзанна Харкер, Аластер Гэлбрейт, Тимоти Сполл, Мэриэнн Фэйтфулл, Фрайзер Эйрс, Майкл Фицджералд, Роберт Эдди

О фильме: Она приходит к нему каждую неделю по средам. Только ради секса. Они занимаются этим, почти не разговаривая. Но однажды она не является к нему в условленный час, и он осознаёт, что вообще ничего не знает о своей безмолвной партнёрше. Когда через неделю она всё-таки появляется, он начинает следить за ней... Сценарий написан по произведению Ханифа Курейши.



Качество: BDRip (AVC)
Формат: MKV
Видео: MPEG-4 AVC, 3017 Кбит/с, 1024x436, 24 кадр/с
Аудио 1: русский, AC3, 448 kbps, 6 ch, 48 kHz [закадровый многоголосый, R5]
Аудио 2: русский, AC3, 448 kbps, 6 ch, 48 kHz [авторский, Сергей Кузнецов]
Аудио 3: русский, AC3, 448 kbps, 6 ch, 48 kHz [авторский, Юрий Сербин]
Аудио 4: английский, AC3, 448 kbps, 6 ch, 48 kHz [оригинал]
Субтитры 1: русские
Субтитры 2: немецкие
Главы/чаптеры
Общее
Уникальный идентификатор : 205411093482589159204891989097191651908 (0x9A88BCD25A9354DBAF8A68C9C7B13A44)
Полное имя : D:\Video\Интим.2001.BDRip (AVC) by msltel.mkv
Формат : Matroska
Версия формата : Version 4
Размер файла : 4,03 Гбайт
Продолжительность : 1 ч. 59 м.
Общий поток : 4812 Кбит/сек
Название фильма : Rip by msltel
Дата кодирования : UTC 2019-10-19 02:24:47
Программа кодирования : mkvmerge v8.2.0 ('World of Adventure') 64bit
Библиотека кодирования : libebml v1.3.1 + libmatroska v1.4.2

Видео
Идентификатор : 1
Формат : AVC
Формат/Информация : Advanced Video Codec
Профиль формата : High@L4.1
Настройки формата : CABAC / 9 Ref Frames
Параметр CABAC формата : Да
Параметр RefFrames формата : 9 кадров
Идентификатор кодека : V_MPEG4/ISO/AVC
Продолжительность : 1 ч. 59 м.
Битрейт : 3017 Кбит/сек
Ширина : 1024 пикселя
Высота : 436 пикселей
Соотношение сторон : 2,35:1
Режим частоты кадров : Постоянный
Частота кадров : 24,000 кадра/сек
Цветовое пространство : YUV
Субдискретизация насыщенности : 4:2:0
Битовая глубина : 8 бит
Тип развёртки : Прогрессивная
Бит/(Пиксели*Кадры) : 0.282
Размер потока : 2,53 Гбайт (63%)
Библиотека кодирования : x264 core 157 r2935 545de2f
Настройки программы : cabac=1 / ref=9 / deblock=1:-2:-2 / analyse=0x3:0x113 / me=umh / subme=11 / psy=1 / psy_rd=1.00:0.15 / mixed_ref=1 / me_range=32 / chroma_me=1 / trellis=2 / 8x8dct=1 / cqm=0 / deadzone=21,11 / fast_pskip=0 / chroma_qp_offset=-3 / threads=6 / lookahead_threads=1 / sliced_threads=0 / nr=0 / decimate=1 / interlaced=0 / bluray_compat=0 / constrained_intra=0 / bframes=16 / b_pyramid=2 / b_adapt=2 / b_bias=0 / direct=1 / weightb=1 / open_gop=0 / weightp=2 / keyint=230 / keyint_min=23 / scenecut=40 / intra_refresh=0 / rc_lookahead=40 / rc=crf / mbtree=1 / crf=19.0 / qcomp=0.60 / qpmin=0 / qpmax=69 / qpstep=4 / vbv_maxrate=50000 / vbv_bufsize=62500 / crf_max=0.0 / nal_hrd=none / filler=0 / ip_ratio=1.40 / aq=1:1.00
Язык : English
Default : Да
Forced : Нет

Аудио #1
Идентификатор : 2
Формат : AC-3
Формат/Информация : Audio Coding 3
Коммерческое название : Dolby Digital
Идентификатор кодека : A_AC3
Продолжительность : 1 ч. 59 м.
Вид битрейта : Постоянный
Битрейт : 448 Кбит/сек
Каналы : 6 каналов
ChannelLayout : L R C LFE Ls Rs
Частота : 48,0 КГц
Частота кадров : 31,250 кадров/сек (1536 SPF)
Метод сжатия : С потерями
Размер потока : 384 Мбайт (9%)
Заголовок : MVO R5
Язык : Russian
ServiceKind/String : Complete Main
Default : Да
Forced : Нет

Аудио #2
Идентификатор : 3
Формат : AC-3
Формат/Информация : Audio Coding 3
Коммерческое название : Dolby Digital
Идентификатор кодека : A_AC3
Продолжительность : 1 ч. 59 м.
Вид битрейта : Постоянный
Битрейт : 448 Кбит/сек
Каналы : 6 каналов
ChannelLayout : L R C LFE Ls Rs
Частота : 48,0 КГц
Частота кадров : 31,250 кадров/сек (1536 SPF)
Метод сжатия : С потерями
Размер потока : 384 Мбайт (9%)
Заголовок : Сергей Кузнецов
Язык : Russian
ServiceKind/String : Complete Main
Default : Нет
Forced : Нет

Аудио #3
Идентификатор : 4
Формат : AC-3
Формат/Информация : Audio Coding 3
Коммерческое название : Dolby Digital
Идентификатор кодека : A_AC3
Продолжительность : 1 ч. 59 м.
Вид битрейта : Постоянный
Битрейт : 448 Кбит/сек
Каналы : 6 каналов
ChannelLayout : L R C LFE Ls Rs
Частота : 48,0 КГц
Частота кадров : 31,250 кадров/сек (1536 SPF)
Метод сжатия : С потерями
Размер потока : 384 Мбайт (9%)
Заголовок : Юрий Сербин
Язык : Russian
ServiceKind/String : Complete Main
Default : Нет
Forced : Нет

Аудио #4
Идентификатор : 5
Формат : AC-3
Формат/Информация : Audio Coding 3
Коммерческое название : Dolby Digital
Идентификатор кодека : A_AC3
Продолжительность : 1 ч. 59 м.
Вид битрейта : Постоянный
Битрейт : 448 Кбит/сек
Каналы : 6 каналов
ChannelLayout : L R C LFE Ls Rs
Частота : 48,0 КГц
Частота кадров : 31,250 кадров/сек (1536 SPF)
Метод сжатия : С потерями
Размер потока : 384 Мбайт (9%)
Заголовок : original
Язык : English
ServiceKind/String : Complete Main
Default : Нет
Forced : Нет

Текст #1
Идентификатор : 6
Формат : UTF-8
Идентификатор кодека : S_TEXT/UTF8
Идентификатор кодека/Информация : UTF-8 Plain Text
Продолжительность : 1 ч. 54 м.
Битрейт : 65 бит/сек
ElementCount : 984
Размер потока : 54,8 Кбайт (0%)
Заголовок : русские
Язык : Russian
Default : Нет
Forced : Нет

Текст #2
Идентификатор : 7
Формат : UTF-8
Идентификатор кодека : S_TEXT/UTF8
Идентификатор кодека/Информация : UTF-8 Plain Text
Продолжительность : 1 ч. 54 м.
Битрейт : 53 бит/сек
ElementCount : 863
Размер потока : 44,4 Кбайт (0%)
Заголовок : немецкие
Язык : German
Default : Нет
Forced : Нет

Меню
00:00:00.000 : :Chapter 01
00:11:21.708 : :Chapter 02
00:20:26.000 : :Chapter 03
00:29:05.708 : :Chapter 04
00:41:07.958 : :Chapter 05
00:50:18.500 : :Chapter 06
00:59:56.958 : :Chapter 07
01:09:35.833 : :Chapter 08
01:20:03.708 : :Chapter 09
01:28:04.666 : :Chapter 10
01:39:56.458 : :Chapter 11
01:47:48.041 : :Chapter 12
01:59:52.000 : :Chapter 13
piratbit.org



Скачать Интим через торрент https://d.radikal.ru/d33/1910/00/a593e5f2511f.jpg Скачать фильм Интим через торрент бесплантно в хорошем качестве О фильме: Она приходит к нему каждую неделю по средам. Только ради секса. Они занимаются этим, почти не разговаривая. Но однажды она не ... 10 10 1
Торрент: Зарегистрирован [2019-10-19 09:12] · скачан: 48 раз
Статус: √ проверено
Размер: 4.03 GB
Как cкачать? Как скачать Интим через торрент | UTorrent

% Раздел Тема Автор DL S | L
Фильмы [HD 720p, 1080p] (Хороший звук DUB, MVO) [ 15.51 GB ] Интим / Intimacy [2001 BDRip 1080p by msltel] MVO 2 x AVO msltel Скачать
1 | 0
Фильмы [HD 720p, 1080p] (Хороший звук DUB, MVO) [ 5.21 GB ] Интим / Intimacy [2001 BDRip 720p by msltel] MVO 2 x AVO msltel Скачать
1 | 0


Последний раз редактировалось: msltel (2019-10-21 09:53), всего редактировалось 1 раз

28-11-2019 20:33  

Отключить всю рекламу на сайте

19-10-2019 10:25 Интим Скачать торрент  

Топик был перенесен из форума Фильмы [HD 720p, 1080p] (Хороший звук DUB, MVO) в форум Фильмы 2001-2005


bober100piratbit.org



    Дорогой пользователь! Огромная просьба, поблагодарите релизера, оцените раздачу и оставьте свои комментарий, если Вы скачали Интим через торрент бесплатно! Внесите свою лепту в развитие PiratBit!
    Комментировать посты могут только пользователи прошедшие не сложную регистрацию
    Показать сообщения:    

    Интим через торрент
    Скачать бесплатно Интим
    Интим скачать торрент
    Интим смотреть онлайн
    Cкачать фильм Интим бесплатно
    Интим скачать торрент в хорошем качестве
    Интим смотреть онлайн бесплатно в хорошем качестве


    Вы не можете начинать темы
    Вы не можете отвечать на сообщения
    Вы не можете редактировать свои сообщения
    Вы не можете удалять свои сообщения
    Вы не можете голосовать в опросах
    Вы не можете прикреплять файлы к сообщениям
    Вы можете скачивать файлы