Достать ножи: Стеклянная луковица

MVO

Добыча

Дубляж

Уэнсдэй

1 сезон

Тор

Дубляж

13 клиническая

1 сезон

Жестокая ночь

MVO

Одни из нас

1 сезон

Deluxe

pack

Рекомендуем

30

Пиратка

ВАЖНО

ВАЖНО

Ghostwire

Пиратка

jed

RePack

nioh2

RePack

RDR2

RePack

NEED FOR SPEED™ PAYBACK

RePack

скачать торрент

Кинопоиск HD

Острые козырьки 6 сезон

6 сезон

FAR CRY 6

RePack

скачать торрент

Лицензия

скачать торрент

MVO

1

1 сезон

скачать торрент

1 сезон

скачать торрент

Лицензия

  

007: Координаты «Скайфолл» / Skyfall (Сэм Мендес) [2012, Боевик, триллер, криминал, приключения, UHD BDRemux 2160p] Дубляж [Лицензия]

007: Координаты «Скайфолл» через торрент piratbit.org

Размер: 50.13 GB | Добавлен: 3 года 3 мес. назад | Торрент скачан:96 раз
Смотреть онлайн | Скачать | Поддержите нас   

20-10-2019 05:45 007: Координаты «Скайфолл» Скачать торрент  

007: Координаты «Скайфолл» / Skyfall
Год выпуска: 2012
Страна: Великобритания, США
Студия: Metro-Goldwyn-Mayer (MGM)
Жанр: Боевик, триллер, криминал, приключения
Продолжительность: 02:23:10
Перевод: Дублированный | Лицензия
Субтитры: Русские (Forced, full), английские

Режиссер: Сэм Мендес

rating

В ролях: Дэниэл Крэйг, Хавьер Бардем, Джуди Денч, Рэйф Файнс, Бен Уишоу, Наоми Харрис, Альберт Финни, Беренис Марло, Хелен МакКрори, Тония Сотиропулу, Рори Киннер, Ола Рапас, Николас Вудесон, Уильям Бакхерст, Элиз дю Ту, Йен Бонар, Гордон Милн, Питер Башам, Бен Лойд-Холмс, Вульф Блицер, Дэвид Гиллис, Джеймс Ли, Кеннет Хэзелдайн, Орион Ли, Дейв Вон, Тэнк Донг, Роджер Йуан, Лианг Янг, Еннис Чун-Ян, Чойе Бэй, Сид Мэн, Анджела Трэн, Миодраг Капор, Хув Эдвардс, Адебайо Боладжи, Элиа Ло Тауро, Амир Бутрус, Хан Бонфилс, Николас Го, Джон Ходжкинсон, Курт Эгиаван, Оливер Джонстоун, Гарри Кершоу, Берт Цезар, Пол Венаблс

Описание: Лояльность Бонда своей начальнице М под угрозой со стороны ее прошлого, которое внезапно даст о себе знать. MI6 подвергается нападению, и агент 007 должен ликвидировать угрозу, несмотря на цену, которую придется заплатить.

Качество: UHD BDRemux 2160p
Формат: MKV

Видео: 3840x2160 at 23.976 fps, MPEG-H HEVC HDR Video, 45500 kbps avg
Аудио#1: 48 kHz, DTS, 5.1, 768 Kbps | Лицензия | RUS |
Аудио#2: 48 kHz, DTS-HD MA, 5.1, 3830 Kbps | Оригинал | ENG |
скриншот  скриншот  скриншот  скриншот  скриншот  

General
Unique ID : 263766873624133575643453170374886761186 (0xC66FA6EB1C77D992FA5961D4F06722E2)
Complete name : F:VideoSkyfall.2012.BDREMUX.2160p.HDR.seleZen.mkv
Format : Matroska
Format version : Version 4
File size : 50.1 GiB
Duration : 2 h 23 min
Overall bit rate mode : Variable
Overall bit rate : 50.1 Mb/s
Movie name : Skyfall 2012 4K from селезень
Encoded date : UTC 2019-10-20 03:13:17
Writing application : mkvmerge v22.0.0 ('At The End Of The World') 64-bit
Writing library : libebml v1.3.5 + libmatroska v1.4.8

Video
ID : 1
Format : HEVC
Format/Info : High Efficiency Video Coding
Format profile : Main 10@L5.1@High
HDR format : SMPTE ST 2086, HDR10 compatible
Codec ID : V_MPEGH/ISO/HEVC
Duration : 2 h 23 min
Bit rate : 45.5 Mb/s
Width : 3 840 pixels
Height : 2 160 pixels
Display aspect ratio : 16:9
Frame rate mode : Constant
Frame rate : 23.976 (24000/1001) FPS
Color space : YUV
Chroma subsampling : 4:2:0 (Type 2)
Bit depth : 10 bits
Bits/(Pixel*Frame) : 0.229
Stream size : 45.5 GiB (91%)
Language : English
Default : Yes
Forced : No
Color range : Limited
Color primaries : BT.2020
Transfer characteristics : PQ
Matrix coefficients : BT.2020 non-constant
Mastering display color pri : Display P3
Mastering display luminance : min: 0.0001 cd/m2, max: 1000 cd/m2

Audio #1
ID : 2
Format : DTS
Format/Info : Digital Theater Systems
Codec ID : A_DTS
Duration : 2 h 23 min
Bit rate mode : Constant
Bit rate : 768 kb/s
Channel(s) : 6 channels
Channel layout : C L R Ls Rs LFE
Sampling rate : 48.0 kHz
Frame rate : 93.750 FPS (512 SPF)
Bit depth : 24 bits
Compression mode : Lossy
Stream size : 786 MiB (2%)
Title : Дубляж [License]
Language : Russian
Default : Yes
Forced : Yes

Audio #2
ID : 3
Format : DTS XLL
Format/Info : Digital Theater Systems
Commercial name : DTS-HD Master Audio
Codec ID : A_DTS
Duration : 2 h 23 min
Bit rate mode : Variable
Bit rate : 3 830 kb/s
Channel(s) : 6 channels
Channel layout : C L R Ls Rs LFE
Sampling rate : 48.0 kHz
Frame rate : 93.750 FPS (512 SPF)
Bit depth : 24 bits
Compression mode : Lossless
Stream size : 3.83 GiB (8%)
Title : Original
Language : English
Default : No
Forced : No

Text #1
ID : 4
Format : UTF-8
Codec ID : S_TEXT/UTF8
Codec ID/Info : UTF-8 Plain Text
Duration : 2 h 9 min
Bit rate : 0 b/s
Count of elements : 20
Stream size : 748 Bytes (0%)
Title : Forced
Language : Russian
Default : Yes
Forced : Yes

Text #2
ID : 5
Format : UTF-8
Codec ID : S_TEXT/UTF8
Codec ID/Info : UTF-8 Plain Text
Duration : 2 h 21 min
Bit rate : 38 b/s
Count of elements : 1112
Stream size : 39.9 KiB (0%)
Title : Full
Language : Russian
Default : No
Forced : No

Text #3
ID : 6
Format : UTF-8
Codec ID : S_TEXT/UTF8
Codec ID/Info : UTF-8 Plain Text
Duration : 2 h 16 min
Bit rate : 33 b/s
Count of elements : 1121
Stream size : 33.4 KiB (0%)
Title : Full
Language : English
Default : No
Forced : No

Menu
00:00:00.000 : en:00:00:00.000
00:04:29.144 : en:00:04:29.144
00:07:33.119 : en:00:07:33.119
00:12:48.059 : en:00:12:48.059
00:16:48.341 : en:00:16:48.341
00:21:38.005 : en:00:21:38.005
00:25:00.958 : en:00:25:00.958
00:29:25.889 : en:00:29:25.889
00:35:06.813 : en:00:35:06.813
00:38:28.431 : en:00:38:28.431
00:41:25.108 : en:00:41:25.108
00:46:23.572 : en:00:46:23.572
00:50:49.296 : en:00:50:49.296
00:54:53.957 : en:00:54:53.957
00:59:39.409 : en:00:59:39.409
01:05:14.911 : en:01:05:14.911
01:10:17.338 : en:01:10:17.338
01:17:10.417 : en:01:17:10.417
01:20:55.726 : en:01:20:55.726
01:26:11.041 : en:01:26:11.041
01:31:50.422 : en:01:31:50.422
01:37:05.194 : en:01:37:05.194
01:40:49.752 : en:01:40:49.752
01:43:46.637 : en:01:43:46.637
01:45:55.391 : en:01:45:55.391
01:52:11.266 : en:01:52:11.266
01:54:46.463 : en:01:54:46.463
01:58:13.712 : en:01:58:13.712
02:02:49.779 : en:02:02:49.779
02:09:39.313 : en:02:09:39.313
02:14:50.291 : en:02:14:50.291
02:17:47.092 : en:02:17:47.092




Скачать 007: Координаты «Скайфолл» через торрент https://img16.lostpic.net/2019/10/20/e1eaa37c9554858e37f0f808ba34fe60.jpg Скачать, смотреть онлайн 007: Координаты «Скайфолл» бесплантно в хорошем качестве Описание: Лояльность Бонда своей начальнице М под угрозой со стороны ее прошлого, которое внезапно даст о себе знать. MI6 подвергается ... 8 10 9
Торрент: Зарегистрирован [2019-10-20 05:45] · скачан: 96 раз
Статус: √ проверено
Размер: 50.13 GB
Как cкачать? Как скачать 007: Координаты «Скайфолл» через торрент | UTorrent

% Раздел Тема Автор DL S | L
Фильмы (HD 720p, 1080p) (48-60 fps) [ 6.66 GB ] 007: Координаты «Скайфолл» / Skyfall | Дубляж | 720p / 60 FPS , Дубляж slaventi-69 Скачать
2 | 0
Ultra HD (UHD: 2K, 4K, 8K) [ 65.61 GB ] 007: Координаты «Скайфолл» / Skyfall | Лицензия | 2160p bober100 Скачать
1 | 0
Ultra HD (UHD: 2K, 4K, 8K) [ 16.37 GB ] 007: Координаты «Скайфолл» / Skyfall | Лицензия | 2160p bober100 Скачать
1 | 0
Фильмы (Blu-ray, BD-Remux, HDDVD) [ 40.08 GB ] Джеймс Бонд. Агент 007: Координаты «Скайфолл» / James Bond: Skyfall | AVO + Ukr + Subs | 1080p читерас Скачать
1 | 0
Фильмы с авторской озвучкой [ 2.38 GB ] 007: Координаты «Скайфолл» / Skyfall | AVO | BDRip-AVC killermax2013 Скачать
1 | 0
Фильмы 2012 [ 2.06 GB ] 007: Координаты «Скайфолл» / Skyfall | DUB | HDRip, DUB, лицензия ALIK1989 Скачать
1 | 0
Фильмы [HD 720p, 1080p] (Хороший звук DUB, MVO) [ 10.73 GB ] 007: Координаты «Скайфолл» / Skyfall | | 1080p diletant Скачать
1 | 0

28-11-2019 20:33  


Отключить вcю реклaмy на сайте, в т.ч. и в плеере онлайн просмотра!

    Дорогой пользователь! Огромная просьба, поблагодарите релизера, оцените раздачу и оставьте свои комментарий, если Вы скачали 007: Координаты «Скайфолл» через торрент бесплатно!!
    Комментировать посты могут только пользователи прошедшие не сложную регистрацию
    Показать сообщения:    


    007: Координаты «Скайфолл» через торрент
    Скачать бесплатно 007: Координаты «Скайфолл»
    007: Координаты «Скайфолл» скачать торрент
    007: Координаты «Скайфолл» смотреть онлайн
    Cкачать фильм 007: Координаты «Скайфолл» бесплатно
    007: Координаты «Скайфолл» скачать торрент в хорошем качестве
    007: Координаты «Скайфолл» смотреть онлайн бесплатно в хорошем качестве
    Вы не можете начинать темы
    Вы не можете отвечать на сообщения
    Вы не можете редактировать свои сообщения
    Вы не можете удалять свои сообщения
    Вы не можете голосовать в опросах
    Вы не можете прикреплять файлы к сообщениям
    Вы можете скачивать файлы
    007: Координаты «Скайфолл» / Skyfall [2012, Боевик, триллер, криминал, приключения, UHD BDRemux 2160p] Дубляж [Лицензия] смотреть онлайн, скачать торрент picoco.icu