Достать ножи: Стеклянная луковица

MVO

Добыча

Дубляж

Уэнсдэй

1 сезон

Тор

Дубляж

13 клиническая

1 сезон

Жестокая ночь

MVO

Одни из нас

1 сезон

Deluxe

pack

Рекомендуем

30

Пиратка

ВАЖНО

ВАЖНО

Ghostwire

Пиратка

jed

RePack

nioh2

RePack

RDR2

RePack

NEED FOR SPEED™ PAYBACK

RePack

скачать торрент

Кинопоиск HD

Острые козырьки 6 сезон

6 сезон

FAR CRY 6

RePack

скачать торрент

Лицензия

скачать торрент

MVO

1

1 сезон

скачать торрент

1 сезон

скачать торрент

Лицензия

  

Боги Египта / Gods of Egypt (Алекс Пройас) [2016, Фэнтези, приключения, UHD BDRemux 2160p] Дубляж [Лицензия] +2xAVO

Боги Египта через торрент piratbit.org

Размер: 58.38 GB | Добавлен: 3 года 3 мес. назад | Торрент скачан:53 раза
Смотреть онлайн | Скачать | Поддержите нас   

20-10-2019 06:07 Боги Египта Скачать торрент  

Боги Египта / Gods of Egypt
Год выпуска: 2016
Страна: США
Жанр: Фэнтези, приключения
Продолжительность: 02:07:03
Перевод: Дублированный | Лицензия, Авторский (одноголосый)
Субтитры: русские (по дубляжу, А. Матвеев), английские (full, SDH)

Режиссер: Алекс Пройас

rating

В ролях:

Брентон Туэйтс (Bek), Джерард Батлер (Set), Николай Костер-Вальдау (Horus), Чедвик Боузман (Thoth), Элоди Юнг (Hathor), Кортни Итон (Zaya), Руфус Сьюэлл (Urshu), Джеффри Раш (Ra), Брайан Браун (Osiris), Рэйчел Блейк (Isis), Эмма Бут (Nephthys), Александр Инглэнд (Mnevis)
Описание: Злобный Бог пустыни Сет вероломно убивает своего брата Осириса и узурпирует Влacть над египетским царством. Бог неба Гор, истинный наследник трона, ослеплен и отправлен в изгнание. Однако, посреди наступившего хаоса и мрака нашелся тот, кто усомнился в правоте нового царя. Чтобы вернуть свою возлюбленную к жизни, молодой и находчивый вор заключает сделку с одержимым местью Гором. Им предстоит удивительное и преисполненное опасностями путешествие, где их будут поджидать засады, огонь неприятеля, трагедии ревности и чудесные спасения.

Качество: UHD BDRemux 2160p
Формат: MKV

Видео: MPEG-H HEVC Video / 52995 kbps / 3840x2160 / 23.976 fps / 16:9 / Main 10 Profile 5.1 High / 4:2:0 / 10 bits / HDR10 / BT.2020 /
Аудио#1: Russian DTS-HD Master Audio / 5.1 / 48 kHz / 2227 kbps / 16-bit (DTS Core: 5.1 / 48 kHz / 1509 kbps / 16-bit) |Дубляж, Blu-Ray|
Аудио#2: Russian AC3 / 5.1 / 48 kHz / 384 kbps / 16-bit |А. Гаврилов|
Аудио#3: Russian DTS-HD Master Audio / 7.1 / 48 kHz / 5432 kbps / 24-bit (DTS Core: 5.1 / 48 kHz / 1509 kbps / 24-bit) |А. Матвеев|
Аудио#4: English DTS:X/DTS-HD Master Audio / 7.1-X / 48 kHz / 4731 kbps / 24-bit (DTS Core: 5.1 / 48 kHz / 1509 kbps / 24-bit) |original|
скриншот  скриншот  скриншот  

скриншот  скриншот  скриншот  

Общее
Уникальный идентификатор : 251923175006541649111213796592486752609 (0xBD86A37E1BE6B6897CD139DFA258A161)
Полное имя : H:\UHD\Боги Египта.2016.UHD.Blu-Ray.Remux.2160p.mkv
Формат : Matroska
Версия формата : Version 4
Размер файла : 58,4 Гбайт
Продолжительность : 2 ч. 7 м.
Режим общего битрейта : Переменный
Общий поток : 65,6 Мбит/сек
Дата кодирования : UTC 2019-10-19 17:20:31
Программа кодирования : mkvmerge v38.0.0 ('The Silent Type') 64-bit
Библиотека кодирования : libebml v1.3.9 + libmatroska v1.5.2
Attachments : poster.jpg

Видео
Идентификатор : 1
Формат : HEVC
Формат/Информация : High Efficiency Video Coding
Профиль формата : Main 10@L5.1@High
HDR_Format/String : SMPTE ST 2086, HDR10 compatible
Идентификатор кодека : V_MPEGH/ISO/HEVC
Продолжительность : 2 ч. 7 м.
Битрейт : 53,0 Мбит/сек
Ширина : 3840 пикселей
Высота : 2160 пикселей
Соотношение сторон : 16:9
Режим частоты кадров : Постоянный
Частота кадров : 23,976 (24000/1001) кадра/сек
Цветовое пространство : YUV
Субдискретизация насыщенности : 4:2:0 (Type 2)
Битовая глубина : 10 бит
Бит/(Пиксели*Кадры) : 0.266
Размер потока : 47,0 Гбайт (81%)
Библиотека кодирования : ATEME Titan KFE 3.7.3 (4.7.3.1003)
Default : Да
Forced : Нет
Цветовой диапазон : Limited
Основные цвета : BT.2020
Характеристики трансфера : PQ
Коэффициенты матрицы : BT.2020 non-constant
MasteringDisplay_ColorPrimaries : Display P3
MasteringDisplay_Luminance : min: 0.0050 cd/m2, max: 4000 cd/m2

Аудио #1
Идентификатор : 2
Формат : DTS XLL
Формат/Информация : Digital Theater Systems
Коммерческое название : DTS-HD Master Audio
Идентификатор кодека : A_DTS
Продолжительность : 2 ч. 7 м.
Вид битрейта : Переменный
Битрейт : 2227 Кбит/сек
Каналы : 6 каналов
ChannelLayout : C L R Ls Rs LFE
Частота : 48,0 КГц
Частота кадров : 93,750 кадра/сек (512 SPF)
Битовая глубина : 16 бит
Метод сжатия : Без потерь
Размер потока : 1,98 Гбайт (3%)
Заголовок : Дубляж, Blu-Ray
Язык : Russian
Default : Да
Forced : Нет

Аудио #2
Идентификатор : 3
Формат : AC-3
Формат/Информация : Audio Coding 3
Коммерческое название : Dolby Digital
Идентификатор кодека : A_AC3
Продолжительность : 2 ч. 7 м.
Вид битрейта : Постоянный
Битрейт : 384 Кбит/сек
Каналы : 6 каналов
ChannelLayout : L R C LFE Ls Rs
Частота : 48,0 КГц
Частота кадров : 31,250 кадров/сек (1536 SPF)
Метод сжатия : С потерями
Размер потока : 349 Мбайт (1%)
Заголовок : А. Гаврилов
Язык : Russian
ServiceKind/String : Complete Main
Default : Нет
Forced : Нет

Аудио #3
Идентификатор : 4
Формат : DTS XLL
Формат/Информация : Digital Theater Systems
Коммерческое название : DTS-HD Master Audio
Идентификатор кодека : A_DTS
Продолжительность : 2 ч. 7 м.
Вид битрейта : Переменный
Битрейт : 5432 Кбит/сек
Каналы : 8 каналов
ChannelLayout : C L R LFE Lb Rb Lss Rss
Частота : 48,0 КГц
Частота кадров : 93,750 кадра/сек (512 SPF)
Битовая глубина : 24 бит
Метод сжатия : Без потерь
Размер потока : 4,82 Гбайт (8%)
Заголовок : А. Матвеев
Язык : Russian
Default : Нет
Forced : Нет

Аудио #4
Идентификатор : 5
Формат : DTS XLL X
Формат/Информация : Digital Theater Systems
Коммерческое название : DTS-HD Master Audio
Идентификатор кодека : A_DTS
Продолжительность : 2 ч. 7 м.
Вид битрейта : Переменный
Битрейт : 4731 Кбит/сек
Каналы : 8 каналов
Channel(s)_Original : Object Based
ChannelLayout_Original : Object Based
Частота : 48,0 КГц
Частота кадров : 93,750 кадра/сек (512 SPF)
Битовая глубина : 24 бит
Размер потока : 4,21 Гбайт (7%)
Язык : English
Default : Нет
Forced : Нет

Текст #1
Идентификатор : 6
Формат : UTF-8
Идентификатор кодека : S_TEXT/UTF8
Идентификатор кодека/Информация : UTF-8 Plain Text
Продолжительность : 1 ч. 55 м.
Битрейт : 75 бит/сек
ElementCount : 1064
Размер потока : 64,1 Кбайт (0%)
Заголовок : по дубляжу
Язык : Russian
Default : Нет
Forced : Нет

Текст #2
Идентификатор : 7
Формат : UTF-8
Идентификатор кодека : S_TEXT/UTF8
Идентификатор кодека/Информация : UTF-8 Plain Text
Продолжительность : 1 ч. 56 м.
Битрейт : 78 бит/сек
ElementCount : 980
Размер потока : 66,8 Кбайт (0%)
Заголовок : А. Матвеев
Язык : Russian
Default : Нет
Forced : Нет

Текст #3
Идентификатор : 8
Формат : UTF-8
Идентификатор кодека : S_TEXT/UTF8
Идентификатор кодека/Информация : UTF-8 Plain Text
Продолжительность : 1 ч. 55 м.
Битрейт : 46 бит/сек
ElementCount : 1221
Размер потока : 39,1 Кбайт (0%)
Заголовок : full
Язык : English
Default : Нет
Forced : Нет

Текст #4
Идентификатор : 9
Формат : UTF-8
Идентификатор кодека : S_TEXT/UTF8
Идентификатор кодека/Информация : UTF-8 Plain Text
Продолжительность : 1 ч. 55 м.
Битрейт : 52 бит/сек
ElementCount : 1487
Размер потока : 44,2 Кбайт (0%)
Заголовок : SDH
Язык : English
Default : Нет
Forced : Нет

Меню
00:00:00.000 : en:Chapter 1
00:07:08.011 : en:Chapter 2
00:18:07.545 : en:Chapter 3
00:23:47.259 : en:Chapter 4
00:30:11.810 : en:Chapter 5
00:39:16.521 : en:Chapter 6
00:46:30.621 : en:Chapter 7
00:54:46.074 : en:Chapter 8
01:01:14.129 : en:Chapter 9
01:09:29.040 : en:Chapter 10
01:18:03.345 : en:Chapter 11
01:28:18.251 : en:Chapter 12
01:36:12.058 : en:Chapter 13
01:39:14.657 : en:Chapter 14
01:46:58.329 : en:Chapter 15
01:52:11.016 : en:Chapter 16




Скачать Боги Египта через торрент https://b.radikal.ru/b12/1809/0d/5aa1b2722d71.png Скачать, смотреть онлайн Боги Египта бесплантно в хорошем качестве Описание: Злобный Бог пустыни Сет вероломно убивает своего брата Осириса и узурпирует Влacть над египетским царством. Бог неба Гор, ... 7 10 6
Торрент: Зарегистрирован [2019-10-20 06:07] · скачан: 53 раз
Статус: √ проверено
Размер: 58.38 GB
Как cкачать? Как скачать Боги Египта через торрент | UTorrent

28-11-2019 20:33  


Отключить вcю реклaмy на сайте, в т.ч. и в плеере онлайн просмотра!

    Дорогой пользователь! Огромная просьба, поблагодарите релизера, оцените раздачу и оставьте свои комментарий, если Вы скачали Боги Египта через торрент бесплатно!!
    Комментировать посты могут только пользователи прошедшие не сложную регистрацию
    Показать сообщения:    


    Боги Египта через торрент
    Скачать бесплатно Боги Египта
    Боги Египта скачать торрент
    Боги Египта смотреть онлайн
    Cкачать фильм Боги Египта бесплатно
    Боги Египта скачать торрент в хорошем качестве
    Боги Египта смотреть онлайн бесплатно в хорошем качестве
    Вы не можете начинать темы
    Вы не можете отвечать на сообщения
    Вы не можете редактировать свои сообщения
    Вы не можете удалять свои сообщения
    Вы не можете голосовать в опросах
    Вы не можете прикреплять файлы к сообщениям
    Вы можете скачивать файлы
    Боги Египта / Gods of Egypt [2016, Фэнтези, приключения, UHD BDRemux 2160p] Дубляж [Лицензия] +2xAVO смотреть онлайн, скачать торрент picoco.icu