Достать ножи: Стеклянная луковица

MVO

Добыча

Дубляж

Уэнсдэй

1 сезон

Тор

Дубляж

13 клиническая

1 сезон

Жестокая ночь

MVO

Одни из нас

1 сезон

Deluxe

pack

Рекомендуем

30

Пиратка

ВАЖНО

ВАЖНО

Ghostwire

Пиратка

jed

RePack

nioh2

RePack

RDR2

RePack

NEED FOR SPEED™ PAYBACK

RePack

скачать торрент

Кинопоиск HD

Острые козырьки 6 сезон

6 сезон

FAR CRY 6

RePack

скачать торрент

Лицензия

скачать торрент

MVO

1

1 сезон

скачать торрент

1 сезон

скачать торрент

Лицензия

  

Красная жара / Red Heat (Уолтер Хилл) [1988, Боевик, триллер, криминал, UHD BDRemux 2160p] MVO [Лицензия]

Красная жара через торрент piratbit.org

Размер: 49.21 GB | Добавлен: 3 года 3 мес. назад | Торрент скачан:16 раз
Смотреть онлайн | Скачать | Поддержите нас   

22-10-2019 16:03 Красная жара Скачать торрент  

Красная жара / Red Heat
Год выпуска: 1988
Страна: США
Студия: Carolco Pictures Inc., Lone Wolf Films, Oak Pictures
Жанр: Боевик, триллер, криминал
Продолжительность: 01:44:01
Перевод: Профессиональный многоголосый | Лицензия
Субтитры: Русские (Full), английские

Режиссер: Уолтер Хилл

rating

В ролях: Арнольд Шварценеггер, Джеймс Белуши, Питер Бойл, Эд О`Росс, Лоуренс Фишборн, Джина Гершон, Ричард Брайт, Дж.В. Смит, Брент Дженнингс, Гретхен Палмер, Прюитт Тейлор Винс, Майкл Дж. Хэгерти, Брайон Джеймс, Глория Делани, Питер Джейсон, Олег Видов, Савелий Крамаров, Джин Шерер, Тенгиз Борисофф, Роджер Каллард

Описание: В доперестроечные времена торговля наркотиками была из ряда вон выходящим преступлением. На борьбу с грузинским мафиози, который используя все связи США, пытается пристрастить к кокаину советских граждан, выходит гроза преступного мира милиционер Иван Данко. Этот парень не любит шутить, и доказательством серьезности его намерений служат большие мускулы и пистолет. Чтобы арестовать бандита, Иван направляется в Чикаго — рассадник капиталистической заразы. Там его помощником становится болтливый полицейский. Вместе они обезвреживают мафиози, разрушив при этом полгорода и расстреляв пару десятков негодяев.

Качество: UHD BDRemux 2160p
Формат: MKV

Видео: 3840x2160 at 24 fps, MPEG-H HEVC HDR Video, 63000 kbps avg
Аудио#1: 48 kHz, AC3, 5.1, 448 Kbps | Лицензия | RUS |
Аудио#2: 48 kHz, DTS-HD MA, 5.1, 4275 Kbps | Оригинал | ENG |
скриншот  скриншот  скриншот  скриншот  скриншот  

General
Unique ID : 64028799399640790495241117059933253010 (0x302B7F8A794DCCBA5F309CE3C6B7AD92)
Complete name : D:Video111Red.Heat.1988.BDREMUX.2160p.HDR.seleZen.mkv
Format : Matroska
Format version : Version 4
File size : 49.2 GiB
Duration : 1 h 44 min
Overall bit rate mode : Variable
Overall bit rate : 67.7 Mb/s
Movie name : Red Heat 1988 4K from селезень
Encoded date : UTC 2019-10-22 10:21:01
Writing application : mkvmerge v22.0.0 ('At The End Of The World') 64-bit
Writing library : libebml v1.3.5 + libmatroska v1.4.8

Video
ID : 1
Format : HEVC
Format/Info : High Efficiency Video Coding
Format profile : Main 10@L5.1@High
HDR format : SMPTE ST 2086, HDR10 compatible
Codec ID : V_MPEGH/ISO/HEVC
Duration : 1 h 44 min
Bit rate : 63.0 Mb/s
Width : 3 840 pixels
Height : 2 160 pixels
Display aspect ratio : 16:9
Frame rate mode : Constant
Frame rate : 24.000 FPS
Color space : YUV
Chroma subsampling : 4:2:0 (Type 2)
Bit depth : 10 bits
Bits/(Pixel*Frame) : 0.316
Stream size : 45.8 GiB (93%)
Language : English
Default : Yes
Forced : No
Color range : Limited
Color primaries : BT.2020
Transfer characteristics : PQ
Matrix coefficients : BT.2020 non-constant
Mastering display color pri : BT.2020
Mastering display luminance : min: 0.0001 cd/m2, max: 1000 cd/m2

Audio #1
ID : 2
Format : AC-3
Format/Info : Audio Coding 3
Commercial name : Dolby Digital
Codec ID : A_AC3
Duration : 1 h 43 min
Bit rate mode : Constant
Bit rate : 448 kb/s
Channel(s) : 6 channels
Channel layout : L R C LFE Ls Rs
Sampling rate : 48.0 kHz
Frame rate : 31.250 FPS (1536 SPF)
Bit depth : 16 bits
Compression mode : Lossy
Stream size : 333 MiB (1%)
Title : MVO [License]
Language : Russian
Service kind : Complete Main
Default : Yes
Forced : Yes

Audio #2
ID : 3
Format : DTS XLL
Format/Info : Digital Theater Systems
Commercial name : DTS-HD Master Audio
Codec ID : A_DTS
Duration : 1 h 44 min
Bit rate mode : Variable
Bit rate : 4 275 kb/s
Channel(s) : 6 channels
Channel layout : C L R Ls Rs LFE
Sampling rate : 48.0 kHz
Frame rate : 93.750 FPS (512 SPF)
Bit depth : 24 bits
Compression mode : Lossless
Stream size : 3.11 GiB (6%)
Title : Original
Language : English
Default : No
Forced : No

Text #1
ID : 4
Format : UTF-8
Codec ID : S_TEXT/UTF8
Codec ID/Info : UTF-8 Plain Text
Duration : 1 h 40 min
Bit rate : 91 b/s
Count of elements : 1100
Stream size : 66.8 KiB (0%)
Title : Full
Language : Russian
Default : No
Forced : No

Text #2
ID : 5
Format : UTF-8
Codec ID : S_TEXT/UTF8
Codec ID/Info : UTF-8 Plain Text
Duration : 1 h 36 min
Bit rate : 59 b/s
Count of elements : 1129
Stream size : 42.2 KiB (0%)
Title : Full
Language : English
Default : No
Forced : No

Menu
00:00:00.000 : en:Chapter 1
00:07:50.625 : en:Chapter 2
00:19:23.083 : en:Chapter 3
00:26:07.625 : en:Chapter 4
00:35:07.500 : en:Chapter 5
00:45:06.167 : en:Chapter 6
00:54:04.375 : en:Chapter 7
01:02:52.500 : en:Chapter 8
01:12:15.417 : en:Chapter 9
01:21:59.458 : en:Chapter 10
01:28:36.833 : en:Chapter 11
01:37:27.292 : en:Chapter 12




Скачать Красная жара через торрент https://d.radikal.ru/d20/1910/2b/8dfd0f998157.jpg Скачать, смотреть онлайн Красная жара бесплантно в хорошем качестве Описание: В доперестроечные времена торговля наркотиками была из ряда вон выходящим преступлением. На борьбу с грузинским мафиози, который ... 9.9 10 7
Торрент: Зарегистрирован [2019-10-22 16:03] · скачан: 16 раз
Статус: √ проверено
Размер: 49.21 GB
Как cкачать? Как скачать Красная жара через торрент | UTorrent

% Раздел Тема Автор DL S | L
T Фильмы (BDRip, HDrip-AVC) (48-60 fps) [ 2.53 GB ] Красная жара / Red Heat | AVO | BDRip-AVC, 60 FPS, AVO (Goblin TimeCop Скачать
1 | 0
Ultra HD (UHD: 2K, 4K, 8K) [ 32.6 GB ] Красная жара / Red Heat | Лицензия | 2160p sheker187 Скачать
1 | 0
Ultra HD (UHD: 2K, 4K, 8K) [ 48.39 GB ] Красная жара / Red Heat | Лицензия | 2160p bober100 Скачать
1 | 0
Фильмы с авторской озвучкой [ 1.78 GB ] Красная жара / RedHeat | | 1080p, Авторский (Гоблин 666gtr666 Скачать
1 | 0
Фильмы до 2000 г. [ 2.14 GB ] Красная жара / Red Heat | | BDRip-AVC killermax2013 Скачать
1 | 0
Фильмы до 2000 г. [ 1.45 GB ] Красная жара / Red Heat | | DVDRip, Пиратка Артронах Скачать
1 | 0
Фильмы (HD 720p, 1080p) (48-60 fps) [ 11.58 GB ] Красная жара / Red Heat | | 1080p / 60 FPS MVO Tiberiumsun69 Скачать
1 | 0

28-11-2019 20:33  


Отключить вcю реклaмy на сайте, в т.ч. и в плеере онлайн просмотра!

    Дорогой пользователь! Огромная просьба, поблагодарите релизера, оцените раздачу и оставьте свои комментарий, если Вы скачали Красная жара через торрент бесплатно!!
    Комментировать посты могут только пользователи прошедшие не сложную регистрацию
    Показать сообщения:    


    Красная жара через торрент
    Скачать бесплатно Красная жара
    Красная жара скачать торрент
    Красная жара смотреть онлайн
    Cкачать фильм Красная жара бесплатно
    Красная жара скачать торрент в хорошем качестве
    Красная жара смотреть онлайн бесплатно в хорошем качестве
    Вы не можете начинать темы
    Вы не можете отвечать на сообщения
    Вы не можете редактировать свои сообщения
    Вы не можете удалять свои сообщения
    Вы не можете голосовать в опросах
    Вы не можете прикреплять файлы к сообщениям
    Вы можете скачивать файлы
    Красная жара / Red Heat [1988, Боевик, триллер, криминал, UHD BDRemux 2160p] MVO [Лицензия] смотреть онлайн, скачать торрент picoco.icu