2 сезон

iTunes

WEBRip

1

2 сезон

iTunes

1 сезон

1 сезон

RePack

30

Новинка

ВАЖНО

ИГРА 18+

pack

RePack

MK11
pack

Легкие деньги

RePack

jed

RePack

fifa19

RePack

RDR2

RePack

NEED FOR SPEED™ PAYBACK

4 сезон

9 сезон

Бесстыжие 9 сезон

Все сериалы

все сериалы на PB.wtf

RePack

FAR CRY 5

Anonymous, доброй ночи, мы не успеваем собрать деньги на оплату серверов за февраль, помогите нам пожалуйста в это трудное время. В качестве благодарности мы отключим Вам всю рекламу на сайте (укажите свой ник в строку Ваше имя)!

×
  
Magnet ссылка

Корона / The Crown / Сезон: 1 / Серии 1-10 из 10 (Бенжамин Карон, Стивен Долдри, Филип Мартин) [2016, драма, история, биография, WEBRip 1080p] [Ukr MVO] piratbit.org

Корона через торрент piratbit.org

Размер: 45.08 GB | Добавлен: 1 год 4 мес. назад | Торрент скачан:9 раз
Скачать  

23-10-2019 06:31 Корона Скачать торрент  


Корона | The Crown

Год выпуска: 2016
Страна: Великобритания / Sony Pictures Television Production UK
Жанр: драма, история, биография
Продолжительность: ~ 00:59:00
Перевод: Украинский (профессиональный, многоголосый)
Субтитры: Украинские, английские

Режиссёр: Бенжамин Карон, Стивен Долдри, Филип Мартин

В ролях: Дэниэл Беттс, Джеймс Хиллер, Джереми Нортэм, Джаред Харрис, Ник Оуэнфорд, Мартин Бишоп, Рита МакДональд Дампер, Карл Фаррер и др.

Описание: Нередко сериалы посвящают историческим личностям, которые внесли огромный вклад в развитие различных научных сфер деятельности или культуры. Но если сериал посвящают человеку при жизни, то значит он того явно заслужил. В центре внимания истории "Корона" находится британская королева Елизавета Вторая, которая славится своей харизматичной личностью и умением держать страну "на коротком поводке". Перед нами сериал, который рассказывает о состоянии дел британского правительства на момент окончания Второй Мировой Войны. Жизнь сложно назвать простой и беззаботной, поэтому английские высшие чины пытаются поднять с колен ранее величайшую империю.



Качество: WEBRip 1080p
Контейнер: MKV
Видео: AVC, 1920x960 (2.000:1), 25.000 fps ~10000 kbps
Аудио 1: AC3, 48 kHz, 6 ch, 640 kbps - Ukr
Аудио 2: AC3, 48 kHz, 6 ch, 384 kbps - Eng
Video
ID : 1
Format : AVC
Format/Info : Advanced Video Codec
Format profile : High@L4.1
Format settings, CABAC : Yes
Format settings, ReFrames : 4 frames
Codec ID : V_MPEG4/ISO/AVC
Duration : 56 min 10 s
Bit rate : 10.9 Mb/s
Width : 1 920 pixels
Height : 960 pixels
Display aspect ratio : 2.000
Frame rate mode : Constant
Frame rate : 25.000 FPS
Color space : YUV
Chroma subsampling : 4:2:0
Bit depth : 8 bits
Scan type : Progressive
Bits/(Pixel*Frame) : 0.237
Stream size : 4.28 GiB (91%)
Writing library : x264 core 148 r2721+7 72d53ab / tmod 162ad1b X86_64
Encoding settings : cabac=1 / ref=4 / deblock=1:-3:-3 / analyse=0x3:0x133 / me=umh / subme=11 / psy=1 / fade_compensate=0.00 / psy_rd=1.05:0.15 / mixed_ref=1 / me_range=36 / chroma_me=1 / trellis=2 / 8x8dct=1 / cqm=0 / deadzone=6,6 / fast_pskip=0 / chroma_qp_offset=-3 / threads=12 / lookahead_threads=3 / sliced_threads=0 / nr=0 / decimate=0 / interlaced=0 / bluray_compat=0 / constrained_intra=0 / fgo=0 / bframes=10 / b_pyramid=2 / b_adapt=2 / b_bias=0 / direct=3 / weightb=1 / open_gop=0 / weightp=2 / keyint=250 / keyint_min=25 / scenecut=40 / intra_refresh=0 / rc=crf / mbtree=0 / crf=17.0000 / qcomp=0.75 / qpmin=0:0:0 / qpmax=69:69:69 / qpstep=4 / ip_ratio=1.10 / pb_ratio=1.10 / aq=3:0.70 / aq-sensitivity=10.00 / aq-factor=1.00:1.00:1.00 / aq2=0 / aq3=0
Language : English
Default : Yes
Forced : No

Audio #1
ID : 2
Format : AC-3
Format/Info : Audio Coding 3
Format settings, Endianness : Big
Codec ID : A_AC3
Duration : 56 min 10 s
Bit rate mode : Constant
Bit rate : 640 kb/s
Channel(s) : 6 channels
Channel positions : Front: L C R, Side: L R, LFE
Sampling rate : 48.0 kHz
Frame rate : 31.250 FPS (1536 spf)
Bit depth : 16 bits
Compression mode : Lossy
Stream size : 257 MiB (5%)
Title : Українська (НеЗупиняйПродакшн)
Language : Ukrainian
Service kind : Complete Main
Default : Yes
Forced : No

Audio #2
ID : 3
Format : AC-3
Format/Info : Audio Coding 3
Format settings, Endianness : Big
Codec ID : A_AC3
Duration : 56 min 10 s
Bit rate mode : Constant
Bit rate : 384 kb/s
Channel(s) : 6 channels
Channel positions : Front: L C R, Side: L R, LFE
Sampling rate : 48.0 kHz
Frame rate : 31.250 FPS (1536 spf)
Bit depth : 16 bits
Compression mode : Lossy
Stream size : 154 MiB (3%)
Language : English
Service kind : Complete Main
Default : No
Forced : No

Text #1
ID : 4
Format : UTF-8
Codec ID : S_TEXT/UTF8
Codec ID/Info : UTF-8 Plain Text
Duration : 54 min 45 s
Bit rate : 70 b/s
Count of elements : 530
Stream size : 28.4 KiB (0%)
Title : Українська
Language : Ukrainian
Default : Yes
Forced : No

Text #2
ID : 5
Format : UTF-8
Codec ID : S_TEXT/UTF8
Codec ID/Info : UTF-8 Plain Text
Duration : 51 min 56 s
Bit rate : 46 b/s
Count of elements : 521
Stream size : 17.5 KiB (0%)
Title : English
Language : English
Default : No
Forced : No

Text #3
ID : 6
Format : UTF-8
Codec ID : S_TEXT/UTF8
Codec ID/Info : UTF-8 Plain Text
Duration : 54 min 26 s
Bit rate : 51 b/s
Count of elements : 615
Stream size : 20.4 KiB (0%)
Title : English (SDH)
Language : English
Default : No
Forced : No
скриншот   скриншот   скриншот  

piratbit.org



Скачать Корона через торрент https://i86.fastpic.ru/big/2019/1023/3f/e737bd8928520ce1e5e921d0a2fa653f.jpg Скачать фильм Корона через торрент бесплантно в хорошем качестве Описание: Нередко сериалы посвящают историческим личностям, которые внесли огромный вклад в развитие различных научных сфер деятельности ... 10 10 2
Info! Золотая раздача, скачанное не засчитывается.
Торрент: Зарегистрирован [2019-10-23 06:31] · скачан: 9 раз
Статус: √ проверено
Размер: 45.08 GB
Как cкачать? Как скачать Корона через торрент | UTorrent

% Раздел Тема Автор DL S | L
Зарубежные сериалы [ 64.74 GB ] Корона / The Crown / Сезон: 4 / Серии: 1-10 из 10 [2020 история WEB-DL 2160p] DUB [Невафильм / Netflix] + 2xMVO [Jaskier NewStudio] bober100 Скачать
1 | 0
Зарубежные сериалы [ 12.15 GB ] Корона / The Crown / Сезон: 4 / Серии: 1-10 из 10 [2020 история WEB-DL 720p] DUB [Невафильм / Netflix] bober100 Скачать
5 | 0
Зарубежные сериалы [ 11.39 GB ] Корона / The Crown / Сезон: 4 / Серии: 1-10 из 10 [2020 история WEB-DLRip] DUB [Невафильм / Netflix] bober100 Скачать
2 | 0
Зарубежные сериалы [ 19.44 GB ] Корона / The Crown / Сезон: 4 / Серии: 1-10 из 10 [2020 история WEB-DL 1080p] DUB [Невафильм / Netflix] bober100 Скачать
2 | 0
Зарубежные сериалы [ 49.66 GB ] Корона / The Crown / Сезон: 2 / Серии: 1-10 из 10 [2017 история BDRip 1080p] DUB [SDI Media] bober100 Скачать
1 | 0
Зарубежные сериалы [ 55.03 GB ] Корона / The Crown / Сезон: 1 / Серии: 1-10 из 10 [2016 история BDRip 1080p] DUB [SDI Media] bober100 Скачать
1 | 0
Зарубежные сериалы [ 5.25 GB ] Корона / The Crown / Сезон: 2 / Серии: 1-3 из 10 [2017 история WEBRip 1080p] MVO [TVShows] bober100 Скачать
1 | 0

28-11-2019 20:33  

Отключить всю рекламу на сайте


    Дорогой пользователь! Огромная просьба, поблагодарите релизера, оцените раздачу и оставьте свои комментарий, если Вы скачали Корона через торрент бесплатно! Внесите свою лепту в развитие PiratBit!
    Комментировать посты могут только пользователи прошедшие не сложную регистрацию
    Показать сообщения:    

    Корона через торрент
    Скачать бесплатно Корона
    Корона скачать торрент
    Корона смотреть онлайн
    Cкачать фильм Корона бесплатно
    Корона скачать торрент в хорошем качестве
    Корона смотреть онлайн бесплатно в хорошем качестве


    Вы не можете начинать темы
    Вы не можете отвечать на сообщения
    Вы не можете редактировать свои сообщения
    Вы не можете удалять свои сообщения
    Вы не можете голосовать в опросах
    Вы не можете прикреплять файлы к сообщениям
    Вы можете скачивать файлы