2 сезон

iTunes

WEBRip

1

2 сезон

iTunes

1 сезон

1 сезон

RePack

30

Новинка

ВАЖНО

ИГРА 18+

pack

RePack

MK11
pack

Легкие деньги

RePack

jed

RePack

fifa19

RePack

RDR2

RePack

NEED FOR SPEED™ PAYBACK

4 сезон

9 сезон

Бесстыжие 9 сезон

Все сериалы

все сериалы на PB.wtf

RePack

FAR CRY 5

Anonymous, доброй ночи, мы не успеваем собрать деньги на оплату серверов за февраль, помогите нам пожалуйста в это трудное время. В качестве благодарности мы отключим Вам всю рекламу на сайте (укажите свой ник в строку Ваше имя)!

×
  
Magnet ссылка

Корона / The Crown / Сезон: 2 / Серии 1-10 из 10 (Бенжамин Карон, Стивен Долдри, Филип Мартин) [2017, драма, история, биография, WEBRip 1080p] [Ukr MVO] piratbit.org

Корона через торрент piratbit.org

Размер: 19.24 GB | Добавлен: 1 год 4 мес. назад | Торрент скачан:2 раза
Скачать  

23-10-2019 06:38 Корона Скачать торрент  


Корона | The Crown

Год выпуска: 2017
Страна: Великобритания / Sony Pictures Television Production UK
Жанр: драма, история, биография
Продолжительность: ~ 00:59:00
Перевод: Украинский (профессиональный, многоголосый)
Субтитры: английские

Режиссёр: Бенжамин Карон, Стивен Долдри, Филип Мартин

В ролях: Дэниэл Беттс, Джеймс Хиллер, Джереми Нортэм, Джаред Харрис, Ник Оуэнфорд, Мартин Бишоп, Рита МакДональд Дампер, Карл Фаррер и др.

Описание: Нередко сериалы посвящают историческим личностям, которые внесли огромный вклад в развитие различных научных сфер деятельности или культуры. Но если сериал посвящают человеку при жизни, то значит он того явно заслужил. В центре внимания истории "Корона" находится британская королева Елизавета Вторая, которая славится своей харизматичной личностью и умением держать страну "на коротком поводке". Перед нами сериал, который рассказывает о состоянии дел британского правительства на момент окончания Второй Мировой Войны. Жизнь сложно назвать простой и беззаботной, поэтому английские высшие чины пытаются поднять с колен ранее величайшую империю.



Качество: WEBRip 1080p
Контейнер: MKV
Видео: AVC, 1920x1080, 25.000 fps ~4870 kbps
Аудио 1: AC3, 48 kHz, 6 ch, 384 kbps - Ukr
Аудио 2: AC3, 48 kHz, 6 ch, 384 kbps - Eng
Video
ID : 1
Format : AVC
Format/Info : Advanced Video Codec
Format profile : Main@L4
Format settings : CABAC / 3 Ref Frames
Format settings, CABAC : Yes
Format settings, ReFrames : 3 frames
Codec ID : V_MPEG4/ISO/AVC
Duration : 54 min 38 s
Bit rate mode : Variable
Bit rate : 4 870 kb/s
Maximum bit rate : 7 305 kb/s
Width : 1 920 pixels
Height : 1 080 pixels
Display aspect ratio : 16:9
Frame rate mode : Constant
Frame rate : 25.000 FPS
Color space : YUV
Chroma subsampling : 4:2:0
Bit depth : 8 bits
Scan type : Progressive
Bits/(Pixel*Frame) : 0.094
Stream size : 1.83 GiB (86%)
Writing library : x264 core 148
Encoding settings : cabac=1 / ref=3 / deblock=1:0:0 / analyse=0x1:0x111 / me=umh / subme=10 / psy=1 / psy_rd=1.00:0.00 / mixed_ref=1 / me_range=24 / chroma_me=1 / trellis=2 / 8x8dct=0 / cqm=0 / deadzone=21,11 / fast_pskip=1 / chroma_qp_offset=-2 / threads=6 / lookahead_threads=1 / sliced_threads=0 / nr=0 / decimate=1 / interlaced=0 / bluray_compat=0 / stitchable=1 / constrained_intra=0 / bframes=2 / b_pyramid=0 / b_adapt=2 / b_bias=0 / direct=3 / weightb=1 / open_gop=0 / weightp=2 / keyint=50 / keyint_min=26 / scenecut=0 / intra_refresh=0 / rc_lookahead=50 / rc=2pass / mbtree=1 / bitrate=4870 / ratetol=1.0 / qcomp=0.50 / qpmin=6 / qpmax=51 / qpstep=4 / cplxblur=20.0 / qblur=0.5 / vbv_maxrate=7305 / vbv_bufsize=9740 / nal_hrd=vbr / filler=0 / ip_ratio=1.40 / aq=1:1.00
Default : Yes
Forced : No

Audio #1
ID : 2
Format : AC-3
Format/Info : Audio Coding 3
Codec ID : A_AC3
Duration : 54 min 38 s
Bit rate mode : Constant
Bit rate : 384 kb/s
Channel(s) : 6 channels
Channel positions : Front: L C R, Side: L R, LFE
Sampling rate : 48.0 kHz
Frame rate : 31.250 FPS (1536 SPF)
Bit depth : 16 bits
Compression mode : Lossy
Stream size : 150 MiB (7%)
Title : Українська (НеЗупиняйПродакшн)
Language : Ukrainian
Service kind : Complete Main
Default : Yes
Forced : No

Audio #2
ID : 3
Format : AC-3
Format/Info : Audio Coding 3
Codec ID : A_AC3
Duration : 54 min 38 s
Bit rate mode : Constant
Bit rate : 384 kb/s
Channel(s) : 6 channels
Channel positions : Front: L C R, Side: L R, LFE
Sampling rate : 48.0 kHz
Frame rate : 31.250 FPS (1536 SPF)
Bit depth : 16 bits
Compression mode : Lossy
Stream size : 150 MiB (7%)
Language : English
Service kind : Complete Main
Default : No
Forced : No

Text
ID : 4
Format : UTF-8
Codec ID : S_TEXT/UTF8
Codec ID/Info : UTF-8 Plain Text
Duration : 51 min 54 s
Bit rate : 77 b/s
Count of elements : 786
Stream size : 29.3 KiB (0%)
Title : SDH
Language : English
Default : No
Forced : No
скриншот   скриншот   скриншот  
piratbit.org



Скачать Корона через торрент https://i86.fastpic.ru/big/2019/1023/3f/e737bd8928520ce1e5e921d0a2fa653f.jpg Скачать фильм Корона через торрент бесплантно в хорошем качестве Описание: Нередко сериалы посвящают историческим личностям, которые внесли огромный вклад в развитие различных научных сфер деятельности ... 9 10 3
Торрент: Зарегистрирован [2019-10-23 06:38] · скачан: 2 раз
Статус: √ проверено
Размер: 19.24 GB
Как cкачать? Как скачать Корона через торрент | UTorrent

% Раздел Тема Автор DL S | L
Зарубежные сериалы [ 49.66 GB ] Корона / The Crown / Сезон: 2 / Серии: 1-10 из 10 [2017 история BDRip 1080p] DUB [SDI Media] bober100 Скачать
1 | 0
Зарубежные сериалы [ 5.25 GB ] Корона / The Crown / Сезон: 2 / Серии: 1-3 из 10 [2017 история WEBRip 1080p] MVO [TVShows] bober100 Скачать
1 | 0
Зарубежные сериалы [ 36.88 GB ] Корона / The Crown / Сезон: 2 / Серии 1-10 из 10 [2017 Историческая WEBRip 1080p] [MVO] killermax2013 Скачать
1 | 0
Зарубежные сериалы [ 6.6 GB ] Корона / The Crown / Сезон: 2 / Серии 1-10 из 10 [2017 Историческая WEBRip] [MVO] killermax2013 Скачать
1 | 0
Зарубежные сериалы [ 6.6 GB ] Корона / The Crown / Сезон: 2 / Серии 1-10 из 10 [2017 Историческая WEBRip] [MVO] killermax2013 Скачать
1 | 0
Зарубежные сериалы [ 19.23 GB ] Корона / The Crown / Сезон: 2 / Серии 1-10 из 10 [2017 Историческая WEBRip 1080p] [MVO] killermax2013 Скачать
1 | 0
Зарубежные сериалы [ 6.84 GB ] Корона / The Crown / Сезон: 2 / Серии 1-10 из 10 [2017 Историческая WEB-DLRip] [MVO] killermax2013 Скачать
1 | 0

28-11-2019 20:33  

Отключить всю рекламу на сайте

    Дорогой пользователь! Огромная просьба, поблагодарите релизера, оцените раздачу и оставьте свои комментарий, если Вы скачали Корона через торрент бесплатно! Внесите свою лепту в развитие PiratBit!
    Комментировать посты могут только пользователи прошедшие не сложную регистрацию
    Показать сообщения:    

    Корона через торрент
    Скачать бесплатно Корона
    Корона скачать торрент
    Корона смотреть онлайн
    Cкачать фильм Корона бесплатно
    Корона скачать торрент в хорошем качестве
    Корона смотреть онлайн бесплатно в хорошем качестве


    Вы не можете начинать темы
    Вы не можете отвечать на сообщения
    Вы не можете редактировать свои сообщения
    Вы не можете удалять свои сообщения
    Вы не можете голосовать в опросах
    Вы не можете прикреплять файлы к сообщениям
    Вы можете скачивать файлы