новый адрес
Ссылка на приватное зеркало всего за 1$. Внимание количество ограничено!!!

iTunes

1+1

iTunes

мы

WEB-DL

1

iTunes

Чернобыль

iTunes

Ральф против интернета

Лицензия

ПШазам

Лицензия

Оно 2

Лицензия

30
pack

Вам бонус

ВАЖНО

!!Акция!!

Alien_RageХит недели

RePack

Resident Evil 21

ИГРА 18+

pack

RePack

jed

!!Акция!!

Alien_Rage

RePack

fifa19

RePack

Assassins Creed: Odyssey

RePack

NEED FOR SPEED™ PAYBACK

3 сезон

9 сезон

Бесстыжие 9 сезон

Все сериалы

все сериалы на PB.wtf

RePack

FAR CRY 5
Ребята, катастрофически не хватает 1900р. для оплаты серверов за Октябрь (всвязи с блокировками трафик упал в 3 раза), 1-2р., выручайте.
  

Хранители / Watchmen / Сезон: 1 / Серии: 1-7 из 9 (Стеф Грин, Николь Кэссел, Андрий Парекх) [2019, фантастика, боевик, драма, детектив, WEB-DL 1080p] MVO [Jaskier] piratbit.org

Хранители через торрент piratbit.org

Раздают: 1 [ 5 KB/s ] Качают: 3 [ 0 KB/s ]
Размер: 23.18 GB | Добавлен: 2 д. 6 ч. назад | Торрент скачан:3 раза
Скачать  

23-10-2019 15:41 Хранители Скачать торрент  

Хранители / Watchmen
Год выпуска: 2019
Страна: США
Жанр: фантастика, боевик, драма, детектив
Продолжительность: ~ 01:00:00
Перевод: Профессиональный (многоголосый закадровый) | Jaskier
Субтитры: Английские

Режиссер: Стеф Грин, Николь Кэссел, Андрий Парекх

rating

В ролях: Реджина Кинг, Дон Джонсон, Тим Блейк Нельсон, Луис Госсет мл., Эндрю Ховард, Джереми Айронс, Яхья Абдул-Матин II, Фрэнсис Фишер, Джейкоб Минг-Трент, Том Мисон и другие.

Описание: В 2019 году Штатами уже 27 лет правит Роберт Редфорд, интернет был убит ещё в зародыше, а полиция скрывает свои лица за жёлтыми масками. Тем временем по всей Америке даёт о себе знать радикальный правый культ Роршаха, призывающий к войне против полиции. Всё это время продолжают действовать новые борцы с преступностью, на горизонте маячит очередной конец света, а Доктор Манхэттен устал от одиночества на Марсе и решил заглянуть на Землю.

Качество: WEB-DL 1080p
Формат: MKV

Видео: ~ 7700 kbps, 1920x1080, 23.976 fps
Аудио#1 Rus: AC3, 6 ch, 384 kbps
Аудио#2 Eng: AC3, 6 ch, 384 kbps
скриншот  скриншот  скриншот  

Общее
Уникальный идентификатор : 239877648658140550420843580280191507737 (0xB476C1310104A85684A65E4AE426DD19)
Полное имя : D:\Watchmen. Season 1 (WEB-DL l 1080p l Jaskier)\Watchmen.S01E01.1080p.WEB-DL.DD5.1.H.264-Jaskier.mkv
Формат : Matroska
Версия формата : Version 2
Размер файла : 3,77 Гбайт
Продолжительность : 1 ч. 2 м.
Общий поток : 8603 Кбит/сек
Дата кодирования : UTC 2019-10-23 15:01:51
Программа кодирования : mkvmerge v7.8.0 ('River Man') 32bit built on Apr 3 2015 12:11:22
Библиотека кодирования : libebml v1.3.1 + libmatroska v1.4.2

Видео
Идентификатор : 1
Формат : AVC
Формат/Информация : Advanced Video Codec
Профиль формата : High@L4
Параметр CABAC формата : Да
Параметр RefFrames формата : 4 кадра
Идентификатор кодека : V_MPEG4/ISO/AVC
Продолжительность : 1 ч. 2 м.
Вид битрейта : Постоянный
Битрейт : 7664 Кбит/сек
Номинальный битрейт : 10000 Кбит/сек
Ширина : 1920 пикселей
Высота : 1080 пикселей
Соотношение сторон : 16:9
Режим частоты кадров : Постоянный
Частота кадров : 23,976 (24000/1001) кадра/сек
Цветовое пространство : YUV
Субдискретизация насыщенности : 4:2:0
Битовая глубина : 8 бит
Тип развёртки : Прогрессивная
Бит/(Пиксели*Кадры) : 0.154
Размер потока : 3,36 Гбайт (89%)
Язык : English
Default : Да
Forced : Нет
Цветовой диапазон : Limited
Основные цвета : BT.709
Характеристики трансфера : BT.709
Коэффициенты матрицы : BT.709

Аудио #1
Идентификатор : 2
Формат : AC-3
Формат/Информация : Audio Coding 3
Расширение режима : CM (complete main)
Параметр Endianness формата : Big
Идентификатор кодека : A_AC3
Продолжительность : 1 ч. 2 м.
Вид битрейта : Постоянный
Битрейт : 384 Кбит/сек
Каналы : 6 каналов
Расположение каналов : Front: L C R, Side: L R, LFE
Частота : 48,0 КГц
Частота кадров : 31,250 кадров/сек (1536 spf)
Метод сжатия : С потерями
Размер потока : 172 Мбайт (4%)
Заголовок : Jaskier
Язык : Russian
Default : Да
Forced : Нет

Аудио #2
Идентификатор : 3
Формат : AC-3
Формат/Информация : Audio Coding 3
Расширение режима : CM (complete main)
Параметр Endianness формата : Big
Идентификатор кодека : A_AC3
Продолжительность : 1 ч. 2 м.
Вид битрейта : Постоянный
Битрейт : 384 Кбит/сек
Каналы : 6 каналов
Расположение каналов : Front: L C R, Side: L R, LFE
Частота : 48,0 КГц
Частота кадров : 31,250 кадров/сек (1536 spf)
Метод сжатия : С потерями
Размер потока : 172 Мбайт (4%)
Язык : English
Default : Нет
Forced : Нет

Текст
Идентификатор : 4
Формат : UTF-8
Идентификатор кодека : S_TEXT/UTF8
Идентификатор кодека/Информация : UTF-8 Plain Text
Язык : English
Default : Нет
Forced : Нет

Меню
00:00:00.000 : en:Ratings
00:00:02.962 : en:Studio Logo
00:00:07.962 : en:There will be no mob justice today...
00:05:31.962 : en:...Trust in the Law
00:07:35.962 : en:Title Sequence
00:07:52.962 : en:Scene 8
00:12:12.962 : en:Judd gets called in
00:15:36.962 : en:House call
00:17:59.962 : en:Mooncakes
00:22:34.962 : en:Little Bighorn
00:25:23.962 : en:Quis custodiet ipsos custodes?
00:28:52.962 : en:We're all a little wound up here
00:35:16.962 : en:The Ranch
00:42:11.962 : en:The Watchmaker's son
00:46:20.962 : en:Talking Shop
00:50:35.962 : en:It's summer and we're running out of ice
00:58:38.962 : en:End Credits

Когда раздача ведётся путём добавления новых серий, при каждом добавлении создётся новый торрент. Чтобы начать докачку новой серии, пользователям необходимо сделать следующее:
(1) остановить скачивание,
(2) удалить старый торрент у себя из клиента (старые серии удалять не надо),
(3) скачать новый торрент и запустить его у себя в клиенте вместо старого, при этом указать клиенту путь в старую папку, куда и должно происходить скачивание новых серий.
Ваш клиент при этом должен произвести хеширование (проверку) старой папки (если не производит сам - помогите ему сделать это), и будет докачивать только те серии, которых у вас ещё нет. Старые серии при этом не удаляются, а продолжают раздаваться!
Eсли вы уже удалили старые серии, то предотвратить повторную закачку старых серий можно, отжав галочку в соответсвующих местах при запуске нового торрента. По возможности, желательно не удалять старые серии как можно дольше, чтобы релизёр не столько продолжал раздавать старые серии, а смог сконцентрироваться на новых.
piratbit.org



Скачать Хранители через торрент https://img16.lostpic.net/2019/10/23/45d4643514bbbdc44f63af96a38240b9.png Скачать фильм Хранители через торрент бесплантно в хорошем качестве Описание: В 2019 году Штатами уже 27 лет правит Роберт Редфорд, интернет был убит ещё в зародыше, а полиция скрывает свои лица за жёлтыми ... 10 10 5
Торрент: Зарегистрирован [2019-12-04 16:58] · скачан: 3 раз
Статус: √ проверено
Размер: 23.18 GB
Как cкачать? Как скачать Хранители через торрент | qTorrent

% Раздел Тема Автор DL S | L
Зарубежные сериалы [ 4.82 GB ] Хранители / Watchmen / Сезон: 1 / Серии: 1-7 из 9 [2019 WEB-DLRip] MVO [Jaskier] bober100 Скачать
1 | 1
Фильмы с украинским озвучиванием [ 7.1 GB ] Хранители / Watchmen / Сезон: 1 / Серии: 1-7 из 9 [2019 WEBRip-AVC] [Ukr MVO] killermax2013 Скачать
2 | 1
T Зарубежные сериалы [ 21.3 GB ] Хранители / Watchmen / Сезон: 1 / Серии: 1-7 из 9 [2019 WEBRip 1080p] MVO [Octopus] bober100 Скачать
1 | 1
T Зарубежные сериалы [ 13.74 GB ] Хранители / Watchmen / Сезон: 1 / Серии: 1-7 из 9 [2019 WEBRip 720p] MVO [Octopus] bober100 Скачать
1 | 3
T Зарубежные сериалы [ 5.47 GB ] Хранители / Watchmen / Сезон: 1 / Серии: 1-7 из 9 [2019 WEBRip] MVO [Octopus] bober100 Скачать
1 | 1
Зарубежные сериалы [ 10.87 GB ] Хранители / Watchmen / Сезон: 1 / Серии: 1-7 из 9 [2019 WEB-DL 720p] [MVO] killermax2013 Скачать
1 | 2
Зарубежные сериалы [ 24.26 GB ] Хранители / Watchmen / Сезон: 1 / Серии: 1-7 из 9 [2019 WEB-DL 1080p] [MVO] killermax2013 Скачать
1 | 1


Последний раз редактировалось: bober100 (2019-12-04 16:58), всего редактировалось 2 раз(а)

28-11-2019 20:33  

Отключить всю рекламу на сайте

18-11-2019 16:33 Хранители Скачать торрент  

почему не указал что есть реклама?)))))) piratbit.org



    Дорогой пользователь! Огромная просьба, поблагодарите релизера, оцените раздачу и оставьте свои комментарий, если Вы скачали Хранители через торрент бесплатно! Внесите свою лепту в развитие PiratBit!
    Комментировать посты могут только пользователи прошедшие не сложную регистрацию
    Показать сообщения:    

    Хранители через торрент
    Скачать бесплатно Хранители
    Хранители скачать торрент
    Хранители смотреть онлайн
    Cкачать фильм Хранители бесплатно
    Хранители скачать торрент в хорошем качестве
    Хранители смотреть онлайн бесплатно в хорошем качестве


    Вы не можете начинать темы
    Вы не можете отвечать на сообщения
    Вы не можете редактировать свои сообщения
    Вы не можете удалять свои сообщения
    Вы не можете голосовать в опросах
    Вы не можете прикреплять файлы к сообщениям
    Вы можете скачивать файлы