Достать ножи: Стеклянная луковица

MVO

Добыча

Дубляж

Уэнсдэй

1 сезон

Тор

Дубляж

13 клиническая

1 сезон

Жестокая ночь

MVO

Одни из нас

1 сезон

Deluxe

pack

Рекомендуем

30

Пиратка

ВАЖНО

ВАЖНО

Ghostwire

Пиратка

jed

RePack

nioh2

RePack

RDR2

RePack

NEED FOR SPEED™ PAYBACK

RePack

скачать торрент

Кинопоиск HD

Острые козырьки 6 сезон

6 сезон

FAR CRY 6

RePack

скачать торрент

Лицензия

скачать торрент

MVO

1

1 сезон

скачать торрент

1 сезон

скачать торрент

Лицензия

  

Ангелы Чарли / Charlie's Angels (МакДжи) [2000, Боевик, триллер, комедия, криминал, приключения, UHD BDRemux 2160p] Дубляж [Лицензия]

Ангелы Чарли через торрент piratbit.org

Размер: 40.48 GB | Добавлен: 3 года 3 мес. назад | Торрент скачан:10 раз
Смотреть онлайн | Скачать | Поддержите нас   

23-10-2019 19:15 Ангелы Чарли Скачать торрент  

Ангелы Чарли / Charlie's Angels
Год выпуска: 2000
Страна: США, Германия
Жанр: Боевик, триллер, комедия, криминал, приключения
Продолжительность: 01:38:23
Перевод: Дублированный | Лицензия
Субтитры: Русские (Forced, full), английские

Режиссер: МакДжи

rating

В ролях: Кэмерон Диас, Дрю Бэрримор, Люси Лью, Билл Мюррей, Сэм Рокуэлл, Келли Линч, Тим Карри, Криспин Гловер, Мэтт ЛеБлан, ЛЛ Кул Джей, Том Грин, Люк Уилсон, Шон Уэйлен, Тим Данауэй, Марк Райан, Бобби Оре, Гай Озери, Джо Дер, Мэттью Фрауман, Реджинальд С. Хэйес, Мелисса МакКарти, Роберт Дж. Стефенсон, Нед Беллами, Рэймонд Паттерсон, Бйорн Флор, Гавен Е. Лукас, Эндрю Уилсон, Брэндон Уильямс Джим Кэллоуэй, Кевин Гревье, Майкл Пападжон, Джим Палмер, Шоун Вудс, Кенни Эндосо, Том Гарнер, Айзек С. Синглтон мл., Пол Элиопулос

Описание: Ангелы Чарли, суперсекретное элитное спецподразделение, которому доверяют только невыполнимые задания. С помощью новейших технологий, современного оружия, боевых искусств и убийственного женского очарования Ангелы Чарли творят чудеса. Но настоящим испытанием станет лишь это последнее задание…

Качество: UHD BDRemux 2160p
Формат: MKV

Видео: 3840x2160 at 23.976 fps, MPEG-H HEVC HDR Video, 53892 kbps avg
Аудио#1: 48 kHz, AC3, 5.1, 640 Kbps | Лицензия | RUS |
Аудио#2: 48 kHz, TrueHD, 7.1, 3655 Kbps | Оригинал | ENG |
Аудио#3: 48 kHz, AC3, 5.1, 640 Kbps | Оригинал | ENG |
скриншот  скриншот  скриншот  скриншот  скриншот  

General
Unique ID : 139873719827185344242134858234443600382 (0x693AB2D3D501BECE8E24B8BF7B9411FE)
Complete name : D:Video111Charlies.Angels.2000.BDREMUX.2160p.HDR.seleZen.mkv
Format : Matroska
Format version : Version 4
File size : 40.5 GiB
Duration : 1 h 38 min
Overall bit rate mode : Variable
Overall bit rate : 58.9 Mb/s
Movie name : Charlies Angels 2000 from селезень
Encoded date : UTC 2019-10-23 18:51:30
Writing application : mkvmerge v22.0.0 ('At The End Of The World') 64-bit
Writing library : libebml v1.3.5 + libmatroska v1.4.8

Video
ID : 1
Format : HEVC
Format/Info : High Efficiency Video Coding
Format profile : Main 10@L5.1@High
HDR format : SMPTE ST 2086, HDR10 compatible
Codec ID : V_MPEGH/ISO/HEVC
Duration : 1 h 38 min
Bit rate : 53.9 Mb/s
Width : 3 840 pixels
Height : 2 160 pixels
Display aspect ratio : 16:9
Frame rate mode : Constant
Frame rate : 23.976 (24000/1001) FPS
Color space : YUV
Chroma subsampling : 4:2:0 (Type 2)
Bit depth : 10 bits
Bits/(Pixel*Frame) : 0.271
Stream size : 37.0 GiB (92%)
Language : English
Default : Yes
Forced : No
Color range : Limited
Color primaries : BT.2020
Transfer characteristics : PQ
Matrix coefficients : BT.2020 non-constant
Mastering display color pri : Display P3
Mastering display luminance : min: 0.0050 cd/m2, max: 4000 cd/m2
Maximum Content Light Level : 3991 cd/m2
Maximum Frame-Average Light : 1021 cd/m2

Audio #1
ID : 2
Format : AC-3
Format/Info : Audio Coding 3
Commercial name : Dolby Digital
Codec ID : A_AC3
Duration : 1 h 38 min
Bit rate mode : Constant
Bit rate : 640 kb/s
Channel(s) : 6 channels
Channel layout : L R C LFE Ls Rs
Sampling rate : 48.0 kHz
Frame rate : 31.250 FPS (1536 SPF)
Bit depth : 16 bits
Compression mode : Lossy
Stream size : 450 MiB (1%)
Title : Дубляж [License]
Language : Russian
Service kind : Complete Main
Default : Yes
Forced : Yes

Audio #2
ID : 3
Format : MLP FBA 16-ch
Format/Info : Meridian Lossless Packing FBA with 16-channel presentation
Commercial name : Dolby TrueHD with Dolby Atmos
Codec ID : A_TRUEHD
Duration : 1 h 38 min
Bit rate mode : Variable
Bit rate : 3 655 kb/s
Maximum bit rate : 6 054 kb/s
Channel(s) : 8 channels
Channel layout : L R C LFE Ls Rs Lb Rb
Sampling rate : 48.0 kHz
Frame rate : 1 200.000 FPS (40 SPF)
Compression mode : Lossless
Stream size : 2.51 GiB (6%)
Title : Original
Language : English
Default : No
Forced : No
Number of dynamic objects : 11
Bed channel count : 1 channel
Bed channel configuration : LFE

Audio #3
ID : 4
Format : AC-3
Format/Info : Audio Coding 3
Commercial name : Dolby Digital
Codec ID : A_AC3
Duration : 1 h 38 min
Bit rate mode : Constant
Bit rate : 640 kb/s
Channel(s) : 6 channels
Channel layout : L R C LFE Ls Rs
Sampling rate : 48.0 kHz
Frame rate : 31.250 FPS (1536 SPF)
Bit depth : 16 bits
Compression mode : Lossy
Stream size : 450 MiB (1%)
Language : English
Service kind : Complete Main
Default : No
Forced : No

Text #1
ID : 5
Format : UTF-8
Codec ID : S_TEXT/UTF8
Codec ID/Info : UTF-8 Plain Text
Duration : 1 h 8 min
Bit rate : 0 b/s
Count of elements : 6
Stream size : 112 Bytes (0%)
Title : Forced
Language : Russian
Default : Yes
Forced : Yes

Text #2
ID : 6
Format : UTF-8
Codec ID : S_TEXT/UTF8
Codec ID/Info : UTF-8 Plain Text
Duration : 1 h 31 min
Bit rate : 71 b/s
Count of elements : 940
Stream size : 48.1 KiB (0%)
Title : Full
Language : Russian
Default : No
Forced : No

Text #3
ID : 7
Format : UTF-8
Codec ID : S_TEXT/UTF8
Codec ID/Info : UTF-8 Plain Text
Duration : 1 h 31 min
Bit rate : 38 b/s
Count of elements : 880
Stream size : 25.8 KiB (0%)
Title : Full
Language : English
Default : No
Forced : No

Menu
00:00:00.000 : en:00:00:00.000
00:06:55.624 : en:00:06:55.624
00:08:17.205 : en:00:08:17.205
00:11:32.525 : en:00:11:32.525
00:15:05.905 : en:00:15:05.905
00:23:14.685 : en:00:23:14.685
00:31:17.250 : en:00:31:17.250
00:37:25.994 : en:00:37:25.994
00:48:38.749 : en:00:48:38.749
00:55:38.919 : en:00:55:38.919
01:00:44.641 : en:01:00:44.641
01:03:02.737 : en:01:03:02.737
01:09:22.992 : en:01:09:22.992
01:15:42.121 : en:01:15:42.121
01:23:08.233 : en:01:23:08.233
01:28:14.956 : en:01:28:14.956




Скачать Ангелы Чарли через торрент https://img16.lostpic.net/2019/10/23/68646e72801841d0be6a2413c2ceee01.jpg Скачать, смотреть онлайн Ангелы Чарли бесплантно в хорошем качестве Описание: Ангелы Чарли, суперсекретное элитное спецподразделение, которому доверяют только невыполнимые задания. С помощью новейших ... 10 10 3
Торрент: Зарегистрирован [2019-10-23 19:15] · скачан: 10 раз
Статус: √ проверено
Размер: 40.48 GB
Как cкачать? Как скачать Ангелы Чарли через торрент | UTorrent

% Раздел Тема Автор DL S | L
Фильмы [HD 720p, 1080p] (Хороший звук DUB, MVO) [ 10.56 GB ] Ангелы Чарли / Charlie's Angels | DUB | 1080p msltel Скачать
1 | 0
Фильмы [HD 720p, 1080p] (Хороший звук DUB, MVO) [ 5 GB ] Ангелы Чарли / Charlie's Angels | DUB | 720p msltel Скачать
1 | 0
Фильмы до 2000 г. [ 3.69 GB ] Ангелы Чарли / Charlie's Angels | DUB | BDRip (AVC msltel Скачать
1 | 0
Ultra HD (UHD: 2K, 4K, 8K) [ 22.6 GB ] Ангелы Чарли / Charlie's Angels | Лицензия | 2160p bober100 Скачать
1 | 0
Ultra HD (UHD: 2K, 4K, 8K) [ 57.07 GB ] Ангелы Чарли / Charlie's Angels | Лицензия | 2160p bober100 Скачать
1 | 0
Фильмы 2001-2005 [ 1.37 GB ] Ангелы Чарли 2: Только вперед / Charlie's Angels: Full Throttle | | DVDRip sasha060 Скачать
1 | 0
Фильмы до 2000 г. [ 1.45 GB ] Ангелы Чарли / Charlie's Angels | DUB | BDRip-AVC killermax2013 Скачать
1 | 0

28-11-2019 20:33  


Отключить вcю реклaмy на сайте, в т.ч. и в плеере онлайн просмотра!

    Дорогой пользователь! Огромная просьба, поблагодарите релизера, оцените раздачу и оставьте свои комментарий, если Вы скачали Ангелы Чарли через торрент бесплатно!!
    Комментировать посты могут только пользователи прошедшие не сложную регистрацию
    Показать сообщения:    


    Ангелы Чарли через торрент
    Скачать бесплатно Ангелы Чарли
    Ангелы Чарли скачать торрент
    Ангелы Чарли смотреть онлайн
    Cкачать фильм Ангелы Чарли бесплатно
    Ангелы Чарли скачать торрент в хорошем качестве
    Ангелы Чарли смотреть онлайн бесплатно в хорошем качестве
    Вы не можете начинать темы
    Вы не можете отвечать на сообщения
    Вы не можете редактировать свои сообщения
    Вы не можете удалять свои сообщения
    Вы не можете голосовать в опросах
    Вы не можете прикреплять файлы к сообщениям
    Вы можете скачивать файлы
    Ангелы Чарли / Charlie's Angels [2000, Боевик, триллер, комедия, криминал, приключения, UHD BDRemux 2160p] Дубляж [Лицензия] смотреть онлайн, скачать торрент picoco.icu