новый адрес
Мега распродажа FORZA HORIZON 4 ULTIMATE+ВСЕ DLC+ОНЛАЙН всего за 499р. 349 руб. (супер цена). Внимание количество ограничено!!!

iTunes

1+1

iTunes

мы

iTunes

1

iTunes

Чернобыль

iTunes

Ральф против интернета

Лицензия

ПШазам

Лицензия

Оно 2

Лицензия

30
pack

ВАЖНО

!!Акция!!

Alien_RageХит недели

RePack

Resident Evil 21

ИГРА 18+

pack

RePack

Metro:Exodus

!!Акция!!

Alien_Rage

RePack

fifa19

RePack

Assassins Creed: Odyssey

RePack

NEED FOR SPEED™ PAYBACK

3 сезон

9 сезон

Бесстыжие 9 сезон

Все сериалы

все сериалы на PB.wtf

RePack

FAR CRY 5
Ребята, катастрофически не хватает 1900р. для оплаты серверов за Октябрь (всвязи с блокировками трафик упал в 3 раза), 1-2р., выручайте.
  

Хранители / Watchmen / Сезон: 1 / Серии: 1-3 из 9 (Николь Кэссел) [2019, фантастика, боевик, драма, детектив, WEB-DL 720p] MVO [NewStudio] piratbit.org

Хранители через торрент piratbit.org

Раздают: 3 [ 3 KB/s ] Качают: 1 [ 0 KB/s ]
Размер: 4.96 GB | Добавлен: 9 д. назад | Торрент скачан:14 раз
Скачать  

23-10-2019 20:38 Хранители Скачать торрент  

Хранители | Watchmen
«Время пришло»
Производство: США
Год выпуска: 2019
Жанр: фантастика, боевик, драма, детектив
Продолжительность: ~ 01:02:00 серия
Премьера (мир): 20 октября 2019
Премьера (РФ): 21 октября 2019
Перевод: Профессиональный (многоголосый закадровый) | NewStudio
Субтитры: Rus (FOCS), Eng

Режиссёр: Николь Кэссел, Стеф Грин, Андрий Парекх

В ролях: Реджина Кинг, Джереми Айронс, Дон Джонсон, Тим Блейк Нельсон, Яхья Абдул-Матин II, Эделейд Клеменс, Фрэнсис Фишер, Луис Госсет мл., Эндрю Ховард, Джейкоб Минг-Трент, Том Мисон, Дилан Шомбинг, Сара Викерз

Описание:
1985 год, разгар Холодной войны между США и СССР. Группа американских супергероев в отставке расследует убийство одного из своих коллег — Комедианта — и в процессе раскрывают заговор, который может изменить ход мировой истории.



Качество: WEB-DL 720p
Формат: MKV

Видео: AVC, 1280 x 720 (1.778), 23.976 fps, ~3102 kbps
Аудио Rus: AC-3, 48 kHz, 6 ch, 640 kbps |NewStudio|
Аудио Eng: E-AC-3, 48 kHz, 6 ch, 640 kbps |Original|


Реклама: Отсутствует
Общее
Уникальный идентификатор : 246286619157052864683651530337830137026 (0xB94913D550193AA45086BA169A8D6CC2)
Полное имя : E:\_Сериалы\_Сериалы\Хранители\Watchmen.s01.WEBDL.720p.NewStudio\Watchmen.s01e01.WEBDL.720p.NewStudio.mkv
Формат : Matroska
Версия формата : Version 4
Размер файла : 1,92 Гбайт
Продолжительность : 1 ч. 2 м.
Общий поток : 4385 Кбит/сек
Дата кодирования : UTC 2019-11-02 11:09:18
Программа кодирования : mkvmerge v38.0.0 ('The Silent Type') 64-bit
Библиотека кодирования : libebml v1.3.9 + libmatroska v1.5.2

Видео
Идентификатор : 1
Формат : AVC
Формат/Информация : Advanced Video Codec
Профиль формата : High@L3.1
Настройки формата : CABAC / 4 Ref Frames
Параметр CABAC формата : Да
Параметр RefFrames формата : 4 кадра
Идентификатор кодека : V_MPEG4/ISO/AVC
Продолжительность : 1 ч. 2 м.
Вид битрейта : Постоянный
Битрейт : 3102 Кбит/сек
Номинальный битрейт : 6000 Кбит/сек
Ширина : 1280 пикселей
Высота : 720 пикселей
Соотношение сторон : 16:9
Режим частоты кадров : Постоянный
Частота кадров : 23,976 (24000/1001) кадра/сек
Цветовое пространство : YUV
Субдискретизация насыщенности : 4:2:0
Битовая глубина : 8 бит
Тип развёртки : Прогрессивная
Бит/(Пиксели*Кадры) : 0.140
Размер потока : 1,36 Гбайт (71%)
Язык : English
Default : Да
Forced : Нет
Цветовой диапазон : Limited
Основные цвета : BT.709
Характеристики трансфера : BT.709
Коэффициенты матрицы : BT.709

Аудио #1
Идентификатор : 2
Формат : AC-3
Формат/Информация : Audio Coding 3
Коммерческое название : Dolby Digital
Идентификатор кодека : A_AC3
Продолжительность : 1 ч. 2 м.
Вид битрейта : Постоянный
Битрейт : 640 Кбит/сек
Каналы : 6 каналов
ChannelLayout : L R C LFE Ls Rs
Частота : 48,0 КГц
Частота кадров : 31,250 кадров/сек (1536 SPF)
Метод сжатия : С потерями
Размер потока : 287 Мбайт (15%)
Язык : Russian
ServiceKind/String : Complete Main
Default : Да
Forced : Нет

Аудио #2
Идентификатор : 3
Формат : E-AC-3
Формат/Информация : Enhanced AC-3
Коммерческое название : Dolby Digital Plus
Идентификатор кодека : A_EAC3
Продолжительность : 1 ч. 2 м.
Вид битрейта : Постоянный
Битрейт : 640 Кбит/сек
Каналы : 6 каналов
ChannelLayout : L R C LFE Ls Rs
Частота : 48,0 КГц
Частота кадров : 31,250 кадров/сек (1536 SPF)
Метод сжатия : С потерями
Задержка видео : 10 мс.
Размер потока : 287 Мбайт (15%)
Язык : English
ServiceKind/String : Complete Main
Default : Нет
Forced : Нет

Текст #1
Идентификатор : 4
Формат : ASS
Идентификатор кодека : S_TEXT/ASS
Идентификатор кодека/Информация : Advanced Sub Station Alpha
Продолжительность : 11 с. 760 мс.
Битрейт : 159 бит/сек
ElementCount : 5
Метод сжатия : Без потерь
Размер потока : 234 байт (0%)
Заголовок : Forced
Язык : Russian
Default : Да
Forced : Да

Текст #2
Идентификатор : 5
Формат : UTF-8
Идентификатор кодека : S_TEXT/UTF8
Идентификатор кодека/Информация : UTF-8 Plain Text
Продолжительность : 1 ч. 2 м.
Битрейт : 64 бит/сек
ElementCount : 600
Размер потока : 29,4 Кбайт (0%)
Язык : Russian
Default : Нет
Forced : Нет

Текст #3
Идентификатор : 6
Формат : UTF-8
Идентификатор кодека : S_TEXT/UTF8
Идентификатор кодека/Информация : UTF-8 Plain Text
Продолжительность : 1 ч. 0 м.
Битрейт : 42 бит/сек
ElementCount : 639
Размер потока : 19,0 Кбайт (0%)
Язык : English
Default : Нет
Forced : Нет

Меню
00:00:00.000 : en:Ratings
00:00:02.962 : en:Studio Logo
00:00:07.962 : en:There will be no mob justice today...
00:05:31.962 : en:...Trust in the Law
00:07:35.962 : en:Title Sequence
00:07:52.962 : en:Scene 8
00:12:12.962 : en:Judd gets called in
00:15:36.962 : en:House call
00:17:59.962 : en:Mooncakes
00:22:34.962 : en:Little Bighorn
00:25:23.962 : en:Quis custodiet ipsos custodes?
00:28:52.962 : en:We're all a little wound up here
00:35:16.962 : en:The Ranch
00:42:11.962 : en:The Watchmaker's son
00:46:20.962 : en:Talking Shop
00:50:35.962 : en:It's summer and we're running out of ice
00:58:38.962 : en:End Credits
Раздача ведётся путём добавления новых серий; при каждом добавлении создаётся новый торрент.
Чтобы начать докачку новой серии, пользователям необходимо сделать следующее:
1. остановить скачивание,
2. удалить старый торрент у себя из клиента (старые серии удалять не надо),
3. скачать новый торрент и запустить его у себя в клиенте вместо старого, при этом указать клиенту путь в старую папку, куда и должно происходить скачивание новых серий.

Ваш клиент при этом должен произвести хеширование (проверку) старой папки (если не производит сам - помогите ему сделать это), и будет докачивать только те серии которых у вас ещё нет. Старые серии при этом не удаляются, а продолжают раздаваться!

Eсли вы уже удалили старые серии, то предотвратить повторную закачку старых серий можно, отжав галочку в соответствующих местах при запуске нового торрента. По возможности, желательно не удалять старые серии как можно дольше, чтобы релизёр не столько продолжал раздавать старые серии, а смог сконцентрироваться на новых.

Совет для тех, кто не хочет ждать перехеширования:
Создайте ещё одну папку рядом с папкой сериала (рядом, а не в ней!!!). Каждую новую серию после удачной загрузки копируйте в новую папку так чтобы ваша основная папка всегда была пуста. Когда ваш новый торрент предложит вам закачать все файлы, выберете только последнюю. Для сидирования же укажите адрес новой папки.

Как закачать отдельный файл из торрента или докачать ранее пропущенные файлы торрента!
1. Открыть торрент
2. Снять галки с тех файлов торрента, которые мы не хотим закачивать. Оставляем только на нужных нам файлах (файле).
3. Нажать О.К.

В клиенте utorrent

Инструкция

1) Открыть торрент


2) Снять галки с тех файлов торрента, которые мы не хотим закачивать:

* либо вручную, снимая с каждого файла галку( скрин №1)
* либо, нажав кнопку "Снять метки (Select None)", сняв сразу со всех файлов(скрин №2)
№1

№2

Оставляем только на нужных нам файлах (файле).

3)Нажать О.К
Приятного просмотра!!!piratbit.org



Скачать Хранители через торрент http://pic1.kartinco.top/images/12/4gfx3.jpg Скачать фильм Хранители через торрент бесплантно в хорошем качестве Описание:1985 год, разгар Холодной войны между США и СССР. Группа американских супергероев в отставке расследует убийство одного из своих ... 10 10 4
Торрент: Зарегистрирован [2019-11-11 01:29] · скачан: 14 раз
Статус: √ проверено
Размер: 4.96 GB
Как cкачать? Как скачать Хранители через торрент | qTorrent

% Раздел Тема Автор DL S | L
Зарубежные сериалы [ 10.37 GB ] Хранители / Watchmen / Сезон: 1 / Серии: 1-3 из 9 [2019 WEB-DL 1080p] MVO [AMEDIA / Kravec] +MVO bober100 Скачать
3 | 3
T Зарубежные сериалы [ 11.2 GB ] Хранители / Watchmen / Сезон: 1 / Серии: 1-3 из 9 [2019 WEBRip 1080p] DVO [Kerob] bober100 Скачать
2 | 2


>> Регистрируемся здесь <<






Отзывы и комментарии о схеме читаем и пишем здесь: ---> Отзывы и комментарии о схеме

Новые благодарочки в телеграм довольных пользователей:
скриншот   скриншот   скриншот   скриншот   скриншот
    Дорогой пользователь! Огромная просьба, поблагодарите релизера, оцените раздачу и оставьте свои комментарий, если Вы скачали Хранители через торрент бесплатно! Внесите свою лепту в развитие PiratBit!
    Комментировать посты могут только пользователи прошедшие не сложную регистрацию
    Показать сообщения:    

    Хранители через торрент
    Скачать бесплатно Хранители
    Хранители скачать торрент
    Хранители смотреть онлайн
    Cкачать фильм Хранители бесплатно
    Хранители скачать торрент в хорошем качестве
    Хранители смотреть онлайн бесплатно в хорошем качестве


    Вы не можете начинать темы
    Вы не можете отвечать на сообщения
    Вы не можете редактировать свои сообщения
    Вы не можете удалять свои сообщения
    Вы не можете голосовать в опросах
    Вы не можете прикреплять файлы к сообщениям
    Вы можете скачивать файлы