Достать ножи: Стеклянная луковица

MVO

Добыча

Дубляж

Уэнсдэй

1 сезон

Тор

Дубляж

13 клиническая

1 сезон

Жестокая ночь

MVO

Одни из нас

1 сезон

Deluxe

pack

Рекомендуем

30

Пиратка

ВАЖНО

ВАЖНО

Ghostwire

Пиратка

jed

RePack

nioh2

RePack

RDR2

RePack

NEED FOR SPEED™ PAYBACK

RePack

скачать торрент

Кинопоиск HD

Острые козырьки 6 сезон

6 сезон

FAR CRY 6

RePack

скачать торрент

Лицензия

скачать торрент

MVO

1

1 сезон

скачать торрент

1 сезон

скачать торрент

Лицензия

  

День независимости: Возрождение / Independence Day: Resurgence (Роланд Эммерих) [2016, фантастика, боевик, приключения, UHD BDRemux 2160p] Дубляж (rus, ukr) [Лицензия] + 2xAVO

День независимости: Возрождение через торрент piratbit.org

Размер: 39.68 GB | Добавлен: 3 года 3 мес. назад | Торрент скачан:96 раз
Смотреть онлайн | Скачать | Поддержите нас   

24-10-2019 07:29 День независимости: Возрождение Скачать торрент  

День независимости: Возрождение / Independence Day: Resurgence«У нас было двадцать лет на подготовку. У них тоже»
Год выпуска: 2016
Страна: США
Жанр: фантастика, боевик, приключения
Продолжительность: 01:59:44
Перевод: Профессиональный (дублированный), Авторский (одноголосый закадровый)
Субтитры: русские (forced, full, Commentary), украинские, английские (forced, full, SDH, Commentary)
Режиссер: Роланд Эммерих
В ролях:

Лиам Хемсворт, Джефф Голдблюм, Джесси Ашер, Билл Пуллман, Майка Монро, Села Уорд, Уильям Фихтнер, Джадд Хёрш, Брент Спайнер, Патрик Ст. Эсприт, Вивика А. Фокс, Анджела Бейби
Описание:
Используя инопланетные технологии, жители Земли создали специальную программу по защите планеты. Но ничего не может нас спасти от нового, еще более разрушительного и масштабного инопланетного вторжения - только смелость нескольких героев, которые единственные могут спасти наш мир от уничтожения.
Рейтинг:

MPAA: PG-13 - Детям до 13 лет просмотр не желателен
Качество: UHD BDRemux 2160p
Формат: MKV
Видео: MPEG-H HEVC Video / 34245 kbps / 3840x2160 / 23.976 fps / 16:9 / Main 10 @ Level 5.1 @ High / 4:2:0 / 10 bits / HDR10 / BT.2020 /
Аудио 1: Russian DTS / 5.1 / 48 kHz / 768 kbps / 24 bits |Дубляж, Blu-Ray|
Аудио 2: Russian DTS-HD Master Audio / 7.1 / 48 kHz / 5101 kbps / 24 bits (DTS Core: 5.1 / 48 kHz / 1509 kbps / 24 bits) |Ю. Живов|
Аудио 3: Russian AC3 / 5.1 / 48 kHz / 384 kbps / 16 bits |А. Гаврилов|
Аудио 4: Ukrainian AC3 / 5.1 / 48 kHz / 384 kbps / 16 bits |Дубляж, Blu-Ray|
Аудио 5: English Dolby Atmos/TrueHD Audio / 7.1-Atmos / 48 kHz / 6199 kbps / 24-bit |original|
Аудио 6: English AC3 Core: 5.1 / 48 kHz / 640 kbps |original|
Аудио 7: English AC3/ 2.0 / 48 kHz / 224 kbps / 16 bits |Commentary by Director Roland Emmerich|
Навигация по главам: Есть

Код:

Общее
Уникальный идентификатор                 : 130481920781537323390845130113836257872 (0x6229E762487FACBAD55405BBC76A1250)
Полное имя                               : H:\UHD\День независимости Возрождение.2016.UHD.Blu-Ray.Remux.2160p.mkv
Формат                                   : Matroska
Версия формата                           : Version 4
Размер файла                             : 39,7 Гбайт
Продолжительность                        : 1 ч. 59 м.
Режим общего битрейта                    : Переменный
Общий поток                              : 47,4 Мбит/сек
Дата кодирования                         : UTC 2019-10-22 17:13:25
Программа кодирования                    : mkvmerge v38.0.0 ('The Silent Type') 64-bit
Библиотека кодирования                   : libebml v1.3.9 + libmatroska v1.5.2
Attachments                              : poster.jpg

Видео
Идентификатор                            : 1
Формат                                   : HEVC
Формат/Информация                        : High Efficiency Video Coding
Профиль формата                          : Main 10@L5.1@High
HDR_Format/String                        : SMPTE ST 2086, HDR10 compatible
Идентификатор кодека                     : V_MPEGH/ISO/HEVC
Продолжительность                        : 1 ч. 59 м.
Битрейт                                  : 34,2 Мбит/сек
Ширина                                   : 3840 пикселей
Высота                                   : 2160 пикселей
Соотношение сторон                       : 16:9
Режим частоты кадров                     : Постоянный
Частота кадров                           : 23,976 (24000/1001) кадра/сек
Цветовое пространство                    : YUV
Субдискретизация насыщенности            : 4:2:0 (Type 2)
Битовая глубина                          : 10 бит
Бит/(Пиксели*Кадры)                      : 0.172
Размер потока                            : 28,6 Гбайт (72%)
Default                                  : Да
Forced                                   : Нет
Цветовой диапазон                        : Limited
Основные цвета                           : BT.2020
Характеристики трансфера                 : PQ
Коэффициенты матрицы                     : BT.2020 non-constant
MasteringDisplay_ColorPrimaries          : Display P3
MasteringDisplay_Luminance               : min: 0.0000 cd/m2, max: 1000 cd/m2

Аудио #1
Идентификатор                            : 2
Формат                                   : DTS
Формат/Информация                        : Digital Theater Systems
Идентификатор кодека                     : A_DTS
Продолжительность                        : 1 ч. 59 м.
Вид битрейта                             : Постоянный
Битрейт                                  : 768 Кбит/сек
Каналы                                   : 6 каналов
ChannelLayout                            : C L R Ls Rs LFE
Частота                                  : 48,0 КГц
Частота кадров                           : 93,750 кадра/сек (512 SPF)
Битовая глубина                          : 24 бит
Метод сжатия                             : С потерями
Размер потока                            : 658 Мбайт (2%)
Заголовок                                : Дубляж, Blu-Ray
Язык                                     : Russian
Default                                  : Да
Forced                                   : Нет

Аудио #2
Идентификатор                            : 3
Формат                                   : DTS XLL
Формат/Информация                        : Digital Theater Systems
Коммерческое название                    : DTS-HD Master Audio
Идентификатор кодека                     : A_DTS
Продолжительность                        : 1 ч. 59 м.
Вид битрейта                             : Переменный
Битрейт                                  : 5101 Кбит/сек
Каналы                                   : 8 каналов
ChannelLayout                            : C L R LFE Lb Rb Lss Rss
Частота                                  : 48,0 КГц
Частота кадров                           : 93,750 кадра/сек (512 SPF)
Битовая глубина                          : 24 бит
Метод сжатия                             : Без потерь
Размер потока                            : 4,27 Гбайт (11%)
Заголовок                                : Ю. Живов
Язык                                     : Russian
Default                                  : Нет
Forced                                   : Нет

Аудио #3
Идентификатор                            : 4
Формат                                   : AC-3
Формат/Информация                        : Audio Coding 3
Коммерческое название                    : Dolby Digital
Идентификатор кодека                     : A_AC3
Продолжительность                        : 1 ч. 59 м.
Вид битрейта                             : Постоянный
Битрейт                                  : 384 Кбит/сек
Каналы                                   : 6 каналов
ChannelLayout                            : L R C LFE Ls Rs
Частота                                  : 48,0 КГц
Частота кадров                           : 31,250 кадров/сек (1536 SPF)
Метод сжатия                             : С потерями
Размер потока                            : 329 Мбайт (1%)
Заголовок                                : А. Гаврилов
Язык                                     : Russian
ServiceKind/String                       : Complete Main
Default                                  : Нет
Forced                                   : Нет

Аудио #4
Идентификатор                            : 5
Формат                                   : AC-3
Формат/Информация                        : Audio Coding 3
Коммерческое название                    : Dolby Digital
Идентификатор кодека                     : A_AC3
Продолжительность                        : 1 ч. 59 м.
Вид битрейта                             : Постоянный
Битрейт                                  : 448 Кбит/сек
Каналы                                   : 6 каналов
ChannelLayout                            : L R C LFE Ls Rs
Частота                                  : 48,0 КГц
Частота кадров                           : 31,250 кадров/сек (1536 SPF)
Метод сжатия                             : С потерями
Размер потока                            : 384 Мбайт (1%)
Заголовок                                : Дубляж, Blu-Ray
Язык                                     : Ukrainian
ServiceKind/String                       : Complete Main
Default                                  : Нет
Forced                                   : Нет

Аудио #5
Идентификатор                            : 6
Формат                                   : MLP FBA 16-ch
Формат/Информация                        : Meridian Lossless Packing FBA with 16-channel presentation
Коммерческое название                    : Dolby TrueHD with Dolby Atmos
Идентификатор кодека                     : A_TRUEHD
Продолжительность                        : 1 ч. 59 м.
Вид битрейта                             : Переменный
Битрейт                                  : 5559 Кбит/сек
Максимальный битрейт                     : 8922 Кбит/сек
Каналы                                   : 8 каналов
ChannelLayout                            : L R C LFE Ls Rs Lb Rb
Частота                                  : 48,0 КГц
Частота кадров                           : 1200,000 кадров/сек (40 SPF)
Метод сжатия                             : Без потерь
Размер потока                            : 4,65 Гбайт (12%)
Язык                                     : English
Default                                  : Нет
Forced                                   : Нет
NumberOfDynamicObjects                   : 13
BedChannelCount/String                   : 1 канал
BedChannelConfiguration                  : LFE

Аудио #6
Идентификатор                            : 7
Формат                                   : AC-3
Формат/Информация                        : Audio Coding 3
Коммерческое название                    : Dolby Digital
Идентификатор кодека                     : A_AC3
Продолжительность                        : 1 ч. 59 м.
Вид битрейта                             : Постоянный
Битрейт                                  : 640 Кбит/сек
Каналы                                   : 6 каналов
ChannelLayout                            : L R C LFE Ls Rs
Частота                                  : 48,0 КГц
Частота кадров                           : 31,250 кадров/сек (1536 SPF)
Метод сжатия                             : С потерями
Размер потока                            : 548 Мбайт (1%)
Язык                                     : English
ServiceKind/String                       : Complete Main
Default                                  : Нет
Forced                                   : Нет

Аудио #7
Идентификатор                            : 8
Формат                                   : AC-3
Формат/Информация                        : Audio Coding 3
Коммерческое название                    : Dolby Digital
Идентификатор кодека                     : A_AC3
Продолжительность                        : 1 ч. 59 м.
Вид битрейта                             : Постоянный
Битрейт                                  : 224 Кбит/сек
Каналы                                   : 2 канала
ChannelLayout                            : L R
Частота                                  : 48,0 КГц
Частота кадров                           : 31,250 кадров/сек (1536 SPF)
Метод сжатия                             : С потерями
Размер потока                            : 192 Мбайт (0%)
Заголовок                                : Commentary by Director Roland Emmerich
Язык                                     : English
ServiceKind/String                       : Complete Main
Default                                  : Нет
Forced                                   : Нет

Текст #1
Идентификатор                            : 9
Формат                                   : UTF-8
Идентификатор кодека                     : S_TEXT/UTF8
Идентификатор кодека/Информация          : UTF-8 Plain Text
Продолжительность                        : 1 ч. 29 м.
Битрейт                                  : 1 бит/сек
ElementCount                             : 18
Размер потока                            : 1,04 Кбайт (0%)
Заголовок                                : forced
Язык                                     : Russian
Default                                  : Да
Forced                                   : Нет

Текст #2
Идентификатор                            : 10
Формат                                   : UTF-8
Идентификатор кодека                     : S_TEXT/UTF8
Идентификатор кодека/Информация          : UTF-8 Plain Text
Продолжительность                        : 1 ч. 49 м.
Битрейт                                  : 101 бит/сек
ElementCount                             : 1725
Размер потока                            : 81,5 Кбайт (0%)
Заголовок                                : full
Язык                                     : Russian
Default                                  : Нет
Forced                                   : Нет

Текст #3
Идентификатор                            : 11
Формат                                   : UTF-8
Идентификатор кодека                     : S_TEXT/UTF8
Идентификатор кодека/Информация          : UTF-8 Plain Text
Продолжительность                        : 1 ч. 59 м.
Битрейт                                  : 140 бит/сек
ElementCount                             : 1857
Размер потока                            : 123 Кбайт (0%)
Заголовок                                : Commentary by Director Roland Emmerich
Язык                                     : Russian
Default                                  : Нет
Forced                                   : Нет

Текст #4
Идентификатор                            : 12
Формат                                   : UTF-8
Идентификатор кодека                     : S_TEXT/UTF8
Идентификатор кодека/Информация          : UTF-8 Plain Text
Продолжительность                        : 1 ч. 58 м.
Битрейт                                  : 95 бит/сек
ElementCount                             : 1733
Размер потока                            : 82,9 Кбайт (0%)
Заголовок                                : full
Язык                                     : Ukrainian
Default                                  : Нет
Forced                                   : Нет

Текст #5
Идентификатор                            : 13
Формат                                   : UTF-8
Идентификатор кодека                     : S_TEXT/UTF8
Идентификатор кодека/Информация          : UTF-8 Plain Text
Продолжительность                        : 7 с. 757 мс.
Битрейт                                  : 140 бит/сек
ElementCount                             : 3
Размер потока                            : 136 байт (0%)
Заголовок                                : forced
Язык                                     : English
Default                                  : Нет
Forced                                   : Нет

Текст #6
Идентификатор                            : 14
Формат                                   : UTF-8
Идентификатор кодека                     : S_TEXT/UTF8
Идентификатор кодека/Информация          : UTF-8 Plain Text
Продолжительность                        : 1 ч. 49 м.
Битрейт                                  : 62 бит/сек
ElementCount                             : 1701
Размер потока                            : 50,1 Кбайт (0%)
Заголовок                                : full
Язык                                     : English
Default                                  : Нет
Forced                                   : Нет

Текст #7
Идентификатор                            : 15
Формат                                   : UTF-8
Идентификатор кодека                     : S_TEXT/UTF8
Идентификатор кодека/Информация          : UTF-8 Plain Text
Продолжительность                        : 1 ч. 49 м.
Битрейт                                  : 74 бит/сек
ElementCount                             : 2158
Размер потока                            : 59,6 Кбайт (0%)
Заголовок                                : SDH
Язык                                     : English
Default                                  : Нет
Forced                                   : Нет

Текст #8
Идентификатор                            : 16
Формат                                   : UTF-8
Идентификатор кодека                     : S_TEXT/UTF8
Идентификатор кодека/Информация          : UTF-8 Plain Text
Продолжительность                        : 1 ч. 50 м.
Битрейт                                  : 111 бит/сек
ElementCount                             : 1921
Размер потока                            : 90,2 Кбайт (0%)
Заголовок                                : Commentary by Director Roland Emmerich
Язык                                     : English
Default                                  : Нет
Forced                                   : Нет

Меню
00:00:00.000                             : en:Chapter 01
00:05:37.337                             : en:Chapter 02
00:09:15.472                             : en:Chapter 03
00:14:06.721                             : en:Chapter 04
00:19:40.471                             : en:Chapter 05
00:22:59.003                             : en:Chapter 06
00:27:10.254                             : en:Chapter 07
00:31:37.646                             : en:Chapter 08
00:39:11.975                             : en:Chapter 09
00:43:41.118                             : en:Chapter 10
00:47:46.614                             : en:Chapter 11
00:52:32.191                             : en:Chapter 12
00:59:10.255                             : en:Chapter 13
01:02:00.133                             : en:Chapter 14
01:07:12.070                             : en:Chapter 15
01:09:54.816                             : en:Chapter 16
01:13:11.721                             : en:Chapter 17
01:18:27.453                             : en:Chapter 18
01:22:45.502                             : en:Chapter 19
01:27:51.808                             : en:Chapter 20
01:32:36.718                             : en:Chapter 21
01:39:38.139                             : en:Chapter 22
01:47:20.142                             : en:Chapter 23
01:50:36.713                             : en:Chapter 24




Скачать День независимости: Возрождение через торрент https://c.radikal.ru/c20/1910/67/99ae99161bf9.png Скачать, смотреть онлайн День независимости: Возрождение бесплантно в хорошем качестве Описание: Используя инопланетные технологии, жители Земли создали специальную программу по защите планеты. Но ничего не может нас спасти от ... 10 10 7
Торрент: Зарегистрирован [2019-10-24 07:29] · скачан: 96 раз
Статус: √ проверено
Размер: 39.68 GB
Как cкачать? Как скачать День независимости: Возрождение через торрент | UTorrent

% Раздел Тема Автор DL S | L
Ultra HD (UHD: 2K, 4K, 8K) [ 38.94 GB ] День независимости: Возрождение / Independence Day: Resurgence | DUB + 2xAVO | 2160p sheker187 Скачать
1 | 0
Ultra HD (UHD: 2K, 4K, 8K) [ 36.49 GB ] День независимости: Возрождение / Independence Day: Resurgence | Лицензия | 2160p sheker187 Скачать
1 | 0

28-11-2019 20:33  


Отключить вcю реклaмy на сайте, в т.ч. и в плеере онлайн просмотра!


    Дорогой пользователь! Огромная просьба, поблагодарите релизера, оцените раздачу и оставьте свои комментарий, если Вы скачали День независимости: Возрождение через торрент бесплатно!!
    Комментировать посты могут только пользователи прошедшие не сложную регистрацию
    Показать сообщения:    


    День независимости: Возрождение через торрент
    Скачать бесплатно День независимости: Возрождение
    День независимости: Возрождение скачать торрент
    День независимости: Возрождение смотреть онлайн
    Cкачать фильм День независимости: Возрождение бесплатно
    День независимости: Возрождение скачать торрент в хорошем качестве
    День независимости: Возрождение смотреть онлайн бесплатно в хорошем качестве
    Вы не можете начинать темы
    Вы не можете отвечать на сообщения
    Вы не можете редактировать свои сообщения
    Вы не можете удалять свои сообщения
    Вы не можете голосовать в опросах
    Вы не можете прикреплять файлы к сообщениям
    Вы можете скачивать файлы
    День независимости: Возрождение / Independence Day: Resurgence [2016, фантастика, боевик, приключения, UHD BDRemux 2160p] Дубляж [Лицензия] + 2xAVO смотреть онлайн, скачать торрент picoco.icu