1 сезон

3 сезон

iTunes

1

iTunes

DUB Netflix

iTunes

13

1 сезон

RePack

30

Deluxe

pack

Легкие деньги

ВАЖНО

ИГРА 18+

pack

RePack

MK11

RePack

jed

RePack

fifa19

RePack

RDR2

RePack

NEED FOR SPEED™ PAYBACK

4 сезон

9 сезон

Бесстыжие 9 сезон

Все сериалы

все сериалы на PB.wtf

RePack

FAR CRY 5

Anonymous, доброй ночи, мы не успеваем до 1 числа собрать деньги на оплату серверов, помогите нам пожалуйста в это трудное время. В качестве благодарности мы отключим Вам всю рекламу на сайте (укажите свой ник в строку Ваше имя)!

×
  
Magnet ссылка

Полярный / Сезон: 1 / Серии: 1-14 из 14 + фильм о сериале (Дмитрий Малина, Павел Кривец, Эльдар Джафаргулиев) [2019, комедия, SATRip] piratbit.org

Полярный через торрент piratbit.org

Размер: 5.17 GB | Добавлен: 1 год 7 мес. назад | Торрент скачан:172 раза
Скачать  

28-10-2019 17:09 Полярный Скачать торрент  

Полярный
Год выпуска: 2019
Страна: Россия
Жанр: комедия
Продолжительность: ~ 00:25:00 (Серия)
Перевод: Не требуется
Субтитры: отсутствуют

Режиссер: Дмитрий Малина, Павел Кривец, Эльдар Джафаргулиев



В ролях: Михаил Пореченков, Иван Охлобыстин, Владимир Епифанцев, Катерина Шпица, Игорь Жижикин, Ян Цапник, Филипп Дьячков (II), Светлана Листова, Карина Зверева, Виктор Бычков, Александр Баширов, Сергей Чирков, Вера Строкова, Игорь Филиппов, Юрий Тузов, Александр Потапов (III), Юрий Назаров, Антон Богданов, Сергей Черданцев, Александр Мосолов

Описание: Эта история о Викторе Громове, бывшем бандите по кличке Витя Мясник. В середине 90-х одно его имя заставляло московских коммерсантов хвататься за сердце, а конкурентов по опасному бизнесу – за стволы. Но со временем Витя отошел от дел и переехал за город, подальше от столичных пробок и бесконечной погони за призрачным счастьем. Эта идиллия нарушается неожиданным визитом бывших подельников Вити во главе с авторитетом по имени Артур, в свое время возглавлявшим их преступную группировку. Артур рассказывает о сильном прессе со стороны правоохранительных органов и просит Витю передержать на его оффшорном банковском счете воровской общак. Витя совсем не в восторге от этой перспективы, но не в праве отказать Артуру, так как обязан ему тем, что не сел в тюрьму в начале 2000-х. Витя кладет общак на свой банковский счет и по настойчивой просьбе Артура ставит на счет пароль, который знает только он один.
Спустя несколько месяцев Витя получает долгожданный звонок от Артура. Шумиха улеглась. Деньги можно возвращать. Но именно в этот момент прямо на голову Вити падает огромная подкова, висевшая при входе на ферму. После того, как Витя приходит в себя, он понимает, что окончательно и бесповоротно забыл пароль от банковского счета. Он понимает, что ему никто не поверит, и по этой причине пытается сбежать. Спустя несколько дней пути в почтовом вагоне Витя сходит на станции под названием «Полярный»…

Качество: SATRip
Формат: AVI

Видео: XviD, ~ 1850 Кбит/с, 720x352
Аудио: MP3, 2 ch, 192 Кбит/с
скриншот  скриншот  скриншот  скриншот  

Общее
Полное имя : D:\Polyarnyi.2019.XviD.SATRip.25Kuzmich\Polyarnyi.e01.XviD.SATRip.25Kuzmich.avi
Формат : AVI
Формат/Информация : Audio Video Interleave
Размер файла : 350 Мбайт
Продолжительность : 24 м. 2 с.
Общий поток : 2038 Кбит/сек
Программа кодирования : VirtualDubMod 1.5.10.3 | www.virtualdub-fr.org || (build 2550/release)
Библиотека кодирования : VirtualDubMod build 2550/release

Видео
Идентификатор : 0
Формат : MPEG-4 Visual
Профиль формата : Advanced Simple@L5
Параметр BVOP формата : 1
Параметр QPel формата : Нет
Параметр GMC формата : Без точки перехода
Параметр матрицы формата : Default (MPEG)
Идентификатор кодека : XVID
Идентификатор кодека/Подсказка : XviD
Продолжительность : 24 м. 2 с.
Битрейт : 1836 Кбит/сек
Ширина : 720 пикселей
Высота : 352 пикселя
Соотношение сторон : 2,045
Частота кадров : 25,000 кадров/сек
Цветовое пространство : YUV
Субдискретизация насыщенности : 4:2:0
Битовая глубина : 8 бит
Тип развёртки : Прогрессивная
Метод сжатия : С потерями
Бит/(Пиксели*Кадры) : 0.290
Размер потока : 316 Мбайт (90%)
Библиотека кодирования : XviD 73

Аудио
Идентификатор : 1
Формат : MPEG Audio
Версия формата : Version 1
Профиль формата : Layer 3
Режим : Joint stereo
Идентификатор кодека : 55
Идентификатор кодека/Подсказка : MP3
Продолжительность : 24 м. 2 с.
Вид битрейта : Постоянный
Битрейт : 192 Кбит/сек
Каналы : 2 канала
Частота : 48,0 КГц
Метод сжатия : С потерями
Размер потока : 33,0 Мбайт (9%)
Выравнивание : Соединение по промежуткам
Продолжительность промежутка : 40 мс. (1,00 видеокадр)
Время предзагрузки промежутка : 504 мс.
Библиотека кодирования : LAME3.99r
Настройки программы : -m j -V 4 -q 2 -lowpass 18.6 -b 192

Внимание! Раздача ведётся путём добавления новых серий; при каждом добавлении создfётся новый торрент. Чтобы начать докачку новой серии, пользователям необходимо сделать следующее: (1) остановить скачивание, (2) удалить старый торрент у себя из клиента (старые серии удалять не надо), (3) скачать новый торрент и запустить его у себя в клиенте вместо старого, при этом указать клиенту путь в старую папку куда и должно происходить скачивание новых серий.

Ваш клиент при этом должен произвести хеширование (проверку) старой папки (если не производит сам - помогите ему сделать это), и будет докачивать только те серии которых у вас ещё нет. Старые серии при этом не удаляются, а продолжают раздаваться!

Eсли вы уже удалили старые серии, то предотвратить повторную закачку старых серий можно, отжав галочку в соответсвующих местах при запуске нового торрента.
piratbit.org



Скачать Полярный через торрент https://c.radikal.ru/c09/1910/9f/a333896182a5.jpg Скачать фильм Полярный через торрент бесплантно в хорошем качестве Описание: Эта история о Викторе Громове, бывшем бандите по кличке Витя Мясник. В середине 90-х одно его имя заставляло московских ... 9.3 10 40
Торрент: Зарегистрирован [2019-11-20 14:59] · скачан: 172 раз
Статус: √ проверено
Размер: 5.17 GB
Как cкачать? Как скачать Полярный через торрент | UTorrent

% Раздел Тема Автор DL S | L
TNT serials [ 11.63 GB ] Полярный / Сезон: 1 / Серии: 1-14 из 14 + фильм о сериале [2019 WEB-DL 1080p] bober100 Скачать
2 | 0


Последний раз редактировалось: bober100 (2019-11-20 14:59), всего редактировалось 5 раз(а)

28-11-2019 20:33  

Отключить всю рекламу на сайте

12-11-2019 18:49 Полярный Скачать торрент  

Сериал топчик... !!piratbit.org



19-11-2019 19:33 Полярный Скачать торрент  

Вот все бы ничего, если бы не этот петушара-пулеметчикpiratbit.org



19-11-2019 19:52 Полярный Скачать торрент  

cfvns писал(а):

Вот все бы ничего, если бы не этот петушара-пулеметчик

обсосам не смотреть, продолжай ссатьсяpiratbit.org



    Дорогой пользователь! Огромная просьба, поблагодарите релизера, оцените раздачу и оставьте свои комментарий, если Вы скачали Полярный через торрент бесплатно! Внесите свою лепту в развитие PiratBit!
    Комментировать посты могут только пользователи прошедшие не сложную регистрацию
    Показать сообщения:    

    Полярный через торрент
    Скачать бесплатно Полярный
    Полярный скачать торрент
    Полярный смотреть онлайн
    Cкачать фильм Полярный бесплатно
    Полярный скачать торрент в хорошем качестве
    Полярный смотреть онлайн бесплатно в хорошем качестве


    Вы не можете начинать темы
    Вы не можете отвечать на сообщения
    Вы не можете редактировать свои сообщения
    Вы не можете удалять свои сообщения
    Вы не можете голосовать в опросах
    Вы не можете прикреплять файлы к сообщениям
    Вы можете скачивать файлы