1 сезон

3 сезон

iTunes

1

iTunes

DUB Netflix

iTunes

13

1 сезон

RePack

30

Deluxe

pack

Легкие деньги

ВАЖНО

ИГРА 18+

pack

RePack

MK11

RePack

jed

RePack

fifa19

RePack

RDR2

RePack

NEED FOR SPEED™ PAYBACK

4 сезон

9 сезон

Бесстыжие 9 сезон

Все сериалы

все сериалы на PB.wtf

RePack

FAR CRY 5

Anonymous, добрый день, мы не успеваем до 1 числа собрать деньги на оплату серверов, помогите нам пожалуйста в это трудное время. В качестве благодарности мы отключим Вам всю рекламу на сайте (укажите свой ник в строку Ваше имя)!

×
  
Magnet ссылка

Полярный / Сезон: 1 / Серии: 1-14 из 14 (Дмитрий Малина, Павел Кривец, Эльдар Джафаргулиев) [2019, комедия, WEB-DL 720p] piratbit.org

Полярный через торрент piratbit.org

Размер: 7.61 GB | Добавлен: 1 год 7 мес. назад | Торрент скачан:158 раз
Скачать  

28-10-2019 17:39 Полярный Скачать торрент  

Полярный
Год выпуска: 2019
Страна: Россия
Жанр: комедия
Продолжительность: ~ 00:25:00 (Серия)
Перевод: Не требуется
Субтитры: отсутствуют

Режиссер: Дмитрий Малина, Павел Кривец, Эльдар Джафаргулиев



В ролях: Михаил Пореченков, Иван Охлобыстин, Владимир Епифанцев, Катерина Шпица, Игорь Жижикин, Ян Цапник, Филипп Дьячков (II), Светлана Листова, Карина Зверева, Виктор Бычков, Александр Баширов, Сергей Чирков, Вера Строкова, Игорь Филиппов, Юрий Тузов, Александр Потапов (III), Юрий Назаров, Антон Богданов, Сергей Черданцев, Александр Мосолов

Описание: Виктор Громов, некогда легенда криминальной Москвы по кличке Мясник, давно отошел от дел и коротает дни на загородной ферме. Но в один прекрасный день на ферме появляются его бывшие коллеги по опасному бизнесу и ставят перед фактом – Витя должен передержать на своем банковском счете воровской общак. Он вынужден согласиться. Но в тот самый день, когда Витя должен вернуть деньги, он получает удар по голове и начисто забывает пароль от банковского счета. Спасаясь бегством от бывших подельников, Витя оказывается за тысячи километров от Москвы. В маленьком северном городке под названием Полярный-17…

Качество: WEB-DL 720p
Формат: MKV

Видео: 1280x608, (2,065:1), 25 fps, AVC MPEG-4 (x264), High@L3.1 ~ 3000 kbps , 0.149 bit/pixel
Аудио: 48.0 kHz, AC3 Dolby Digital, 2/0 (L,R) ch, ~ 192 kbps
скриншот  скриншот  скриншот  скриншот  

Общее
Уникальный идентификатор : 195359866081390284506198118377225315974 (0x92F8F10CD029DEAE8BF82E244D25E686)
Полное имя : C:\Poliarniy.2019.WEB-DL.(720p).ExKinoRay\Poliarniy.e01.2019.WEB-DL.(720p).ExKinoRay.mkv
Формат : Matroska
Версия формата : Version 2
Размер файла : 589 Мбайт
Продолжительность : 26 м. 11 с.
Режим общего битрейта : Переменный
Общий поток : 3146 Кбит/сек
Дата кодирования : UTC 2019-11-04 16:54:33
Программа кодирования : mkvmerge v5.8.0 ('No Sleep / Pillow') built on Sep 2 2012 15:37:04
Библиотека кодирования : libebml v1.2.3 + libmatroska v1.3.0

Видео
Идентификатор : 1
Формат : AVC
Формат/Информация : Advanced Video Codec
Профиль формата : High@L3.1
Настройки формата : CABAC / 1 Ref Frames
Параметр CABAC формата : Да
Параметр RefFrames формата : 1 кадр
Параметр GOP формата : M=1, N=50
Идентификатор кодека : V_MPEG4/ISO/AVC
Продолжительность : 26 м. 11 с.
Вид битрейта : Переменный
Битрейт : 2892 Кбит/сек
Максимальный битрейт : 3000 Кбит/сек
Ширина : 1280 пикселей
Высота : 608 пикселей
Соотношение сторон : 2,065
Режим частоты кадров : Постоянный
Частота кадров : 25,000 кадров/сек
Цветовое пространство : YUV
Субдискретизация насыщенности : 4:2:0
Битовая глубина : 8 бит
Тип развёртки : Прогрессивная
Бит/(Пиксели*Кадры) : 0.149
Размер потока : 542 Мбайт (92%)
Язык : Russian
Default : Да
Forced : Нет

Аудио
Идентификатор : 2
Формат : AC-3
Формат/Информация : Audio Coding 3
Коммерческое название : Dolby Digital
Идентификатор кодека : A_AC3
Продолжительность : 26 м. 11 с.
Вид битрейта : Постоянный
Битрейт : 192 Кбит/сек
Каналы : 2 канала
ChannelLayout : L R
Частота : 48,0 КГц
Частота кадров : 31,250 кадров/сек (1536 SPF)
Метод сжатия : С потерями
Размер потока : 36,0 Мбайт (6%)
Язык : Russian
ServiceKind/String : Complete Main
Default : Да
Forced : Нет

Внимание! Раздача ведётся путём добавления новых серий; при каждом добавлении создfётся новый торрент. Чтобы начать докачку новой серии, пользователям необходимо сделать следующее: (1) остановить скачивание, (2) удалить старый торрент у себя из клиента (старые серии удалять не надо), (3) скачать новый торрент и запустить его у себя в клиенте вместо старого, при этом указать клиенту путь в старую папку куда и должно происходить скачивание новых серий.

Ваш клиент при этом должен произвести хеширование (проверку) старой папки (если не производит сам - помогите ему сделать это), и будет докачивать только те серии которых у вас ещё нет. Старые серии при этом не удаляются, а продолжают раздаваться!

Eсли вы уже удалили старые серии, то предотвратить повторную закачку старых серий можно, отжав галочку в соответсвующих местах при запуске нового торрента.
piratbit.org



Скачать Полярный через торрент https://c.radikal.ru/c09/1910/9f/a333896182a5.jpg Скачать фильм Полярный через торрент бесплантно в хорошем качестве Описание: Виктор Громов, некогда легенда криминальной Москвы по кличке Мясник, давно отошел от дел и коротает дни на загородной ферме. Но в ... 9.2 10 13
Торрент: Зарегистрирован [2019-11-21 13:26] · скачан: 158 раз
Статус: √ проверено
Размер: 7.61 GB
Как cкачать? Как скачать Полярный через торрент | UTorrent

% Раздел Тема Автор DL S | L
Наши сериалы [ 4.27 GB ] Полярный / Сезон: 1 / Серии: 1-14 из 14 [2019 HDTVRip] bober100 Скачать
1 | 0
TNT serials [ 4.77 GB ] Полярный / Сезон: 1 / Серии: 1-14 из 14 [2019 HDTVRip-AVC] bober100 Скачать
1 | 0
TNT serials [ 5.17 GB ] Полярный / Сезон: 1 / Серии: 1-14 из 14 + фильм о сериале [2019 SATRip] bober100 Скачать
1 | 0
TNT serials [ 13.89 GB ] Полярный / Сезон: 1 / Серии: 1-14 из 14 [2019 HDTV 1080i] bober100 Скачать
2 | 0
TNT serials [ 11.63 GB ] Полярный / Сезон: 1 / Серии: 1-14 из 14 + фильм о сериале [2019 WEB-DL 1080p] bober100 Скачать
4 | 0
TNT serials [ 4.36 GB ] Полярный / Сезон: 1 / Серии: 1-14 из 14 [2019 WEB-DLRip] bober100 Скачать
2 | 0
TNT serials [ 5.27 GB ] Полярный / Сезон: 1 / Серии: 1-14 из 14 [2019 WEB-DLRip-AVC] bober100 Скачать
2 | 0


Последний раз редактировалось: bober100 (2019-11-12 16:14), всего редактировалось 3 раз(а)

28-11-2019 20:33  

Отключить всю рекламу на сайте

    Дорогой пользователь! Огромная просьба, поблагодарите релизера, оцените раздачу и оставьте свои комментарий, если Вы скачали Полярный через торрент бесплатно! Внесите свою лепту в развитие PiratBit!
    Комментировать посты могут только пользователи прошедшие не сложную регистрацию
    Показать сообщения:    

    Полярный через торрент
    Скачать бесплатно Полярный
    Полярный скачать торрент
    Полярный смотреть онлайн
    Cкачать фильм Полярный бесплатно
    Полярный скачать торрент в хорошем качестве
    Полярный смотреть онлайн бесплатно в хорошем качестве


    Вы не можете начинать темы
    Вы не можете отвечать на сообщения
    Вы не можете редактировать свои сообщения
    Вы не можете удалять свои сообщения
    Вы не можете голосовать в опросах
    Вы не можете прикреплять файлы к сообщениям
    Вы можете скачивать файлы