1 сезон

3 сезон

iTunes

1

iTunes

DUB Netflix

iTunes

13

1 сезон

RePack

30

Deluxe

pack

Легкие деньги

ВАЖНО

ИГРА 18+

pack

RePack

MK11

RePack

jed

RePack

fifa19

RePack

RDR2

RePack

NEED FOR SPEED™ PAYBACK

4 сезон

9 сезон

Бесстыжие 9 сезон

Все сериалы

все сериалы на PB.wtf

RePack

FAR CRY 5

Anonymous, добрый день, мы не успеваем до 1 числа собрать деньги на оплату серверов, помогите нам пожалуйста в это трудное время. В качестве благодарности мы отключим Вам всю рекламу на сайте (укажите свой ник в строку Ваше имя)!

×
  
Magnet ссылка

Полярный / Сезон: 1 / Серии: 1-14 из 14 (Дмитрий Малина, Павел Кривец, Эльдар Джафаргулиев) [2019, комедия, WEB-DLRip-AVC] piratbit.org

Полярный через торрент piratbit.org

Раздают: 1 [ 0 KB/s ]
Размер: 5.27 GB | Добавлен: 1 год 6 мес. назад | Торрент скачан:223 раза
Скачать  

28-10-2019 17:42 Полярный Скачать торрент  

Полярный
Год выпуска: 2019
Страна: Россия
Жанр: комедия
Продолжительность: ~ 00:25:00 (Серия)
Перевод: Не требуется
Субтитры: отсутствуют

Режиссер: Дмитрий Малина, Павел Кривец, Эльдар Джафаргулиев



В ролях: Михаил Пореченков, Иван Охлобыстин, Владимир Епифанцев, Катерина Шпица, Игорь Жижикин, Ян Цапник, Филипп Дьячков (II), Светлана Листова, Карина Зверева, Виктор Бычков, Александр Баширов, Сергей Чирков, Вера Строкова, Игорь Филиппов, Юрий Тузов, Александр Потапов (III), Юрий Назаров, Антон Богданов, Сергей Черданцев, Александр Мосолов

Описание: Эта история о Викторе Громове, бывшем бандите по кличке Витя Мясник. В середине 90-х одно его имя заставляло московских коммерсантов хвататься за сердце, а конкурентов по опасному бизнесу – за стволы. Но со временем Витя отошел от дел и переехал за город, подальше от столичных пробок и бесконечной погони за призрачным счастьем. Эта идиллия нарушается неожиданным визитом бывших подельников Вити во главе с авторитетом по имени Артур, в свое время возглавлявшим их преступную группировку. Артур рассказывает о сильном прессе со стороны правоохранительных органов и просит Витю передержать на его оффшорном банковском счете воровской общак. Витя совсем не в восторге от этой перспективы, но не в праве отказать Артуру, так как обязан ему тем, что не сел в тюрьму в начале 2000-х. Витя кладет общак на свой банковский счет и по настойчивой просьбе Артура ставит на счет пароль, который знает только он один.
Спустя несколько месяцев Витя получает долгожданный звонок от Артура. Шумиха улеглась. Деньги можно возвращать. Но именно в этот момент прямо на голову Вити падает огромная подкова, висевшая при входе на ферму. После того, как Витя приходит в себя, он понимает, что окончательно и бесповоротно забыл пароль от банковского счета. Он понимает, что ему никто не поверит, и по этой причине пытается сбежать. Спустя несколько дней пути в почтовом вагоне Витя сходит на станции под названием «Полярный»…

Качество: WEB-DLRip-AVC
Формат: MKV

Видео: 1024х496 (2,065), 25 fps, AVC MPEG-4 (x264), High@L4.1 ~ 2000 kbps avg, 0.158 bit/pixel
Аудио: 48 kHz, AC3, 2 ch, ~ 192 kbps avg
скриншот  скриншот  скриншот  скриншот  

Общее
Уникальный идентификатор : 222919175526929728774369306822373914034 (0xA7B4ABE98E85A0FC9B8C23D80911B5B2)
Полное имя : G:Poliarniy.2019.WEB-DLRip.(AVC).ExKinoRayPoliarniy.E01.2019.WEB-DLRip.(AVC).ExKinoRay.mkv
Формат : Matroska
Версия формата : Version 2
Размер файла : 410 Мбайт
Продолжительность : 26 м. 11 с.
Общий поток : 2188 Кбит/сек
Дата кодирования : UTC 2019-11-04 16:40:12
Программа кодирования : mkvmerge v7.8.0 ('River Man') 32bit built on Apr 3 2015 12:11:22
Библиотека кодирования : libebml v1.3.1 + libmatroska v1.4.2

Видео
Идентификатор : 1
Формат : AVC
Формат/Информация : Advanced Video Codec
Профиль формата : High@L4.1
Настройки формата : CABAC / 10 Ref Frames
Параметр CABAC формата : Да
Параметр RefFrames формата : 10 кадров
Идентификатор кодека : V_MPEG4/ISO/AVC
Продолжительность : 26 м. 11 с.
Битрейт : 2000 Кбит/сек
Ширина : 1024 пикселя
Высота : 496 пикселей
Соотношение сторон : 2,065
Режим частоты кадров : Постоянный
Частота кадров : 25,000 кадров/сек
Цветовое пространство : YUV
Субдискретизация насыщенности : 4:2:0
Битовая глубина : 8 бит
Тип развёртки : Прогрессивная
Бит/(Пиксели*Кадры) : 0.158
Размер потока : 366 Мбайт (89%)
Библиотека кодирования : x264 core 146 r2538 121396c
Настройки программы : cabac=1 / ref=10 / deblock=1:-3:-3 / analyse=0x3:0x113 / me=umh / subme=11 / psy=1 / psy_rd=1.00:0.20 / mixed_ref=1 / me_range=32 / chroma_me=1 / trellis=2 / 8x8dct=1 / cqm=0 / deadzone=21,11 / fast_pskip=1 / chroma_qp_offset=-3 / threads=24 / lookahead_threads=7 / sliced_threads=0 / nr=0 / decimate=0 / interlaced=0 / bluray_compat=0 / constrained_intra=0 / bframes=12 / b_pyramid=2 / b_adapt=2 / b_bias=0 / direct=3 / weightb=1 / open_gop=0 / weightp=2 / keyint=250 / keyint_min=25 / scenecut=40 / intra_refresh=0 / rc_lookahead=60 / rc=2pass / mbtree=1 / bitrate=2000 / ratetol=1.0 / qcomp=0.60 / qpmin=0 / qpmax=69 / qpstep=4 / cplxblur=20.0 / qblur=0.5 / vbv_maxrate=14000 / vbv_bufsize=14000 / nal_hrd=none / filler=0 / ip_ratio=1.40 / aq=3:1.40
Default : Да
Forced : Нет
Цветовой диапазон : Limited
Основные цвета : BT.709
Характеристики трансфера : BT.709
Коэффициенты матрицы : BT.709

Аудио
Идентификатор : 2
Формат : AC-3
Формат/Информация : Audio Coding 3
Идентификатор кодека : A_AC3
Продолжительность : 26 м. 11 с.
Вид битрейта : Постоянный
Битрейт : 192 Кбит/сек
Каналы : 2 канала
Расположение каналов : Front: L R
Частота : 48,0 КГц
Частота кадров : 31,250 кадров/сек (1536 SPF)
Битовая глубина : 16 бит
Метод сжатия : С потерями
Размер потока : 36,0 Мбайт (9%)
Default : Да
Forced : Нет

Внимание! Раздача ведётся путём добавления новых серий; при каждом добавлении создfётся новый торрент. Чтобы начать докачку новой серии, пользователям необходимо сделать следующее: (1) остановить скачивание, (2) удалить старый торрент у себя из клиента (старые серии удалять не надо), (3) скачать новый торрент и запустить его у себя в клиенте вместо старого, при этом указать клиенту путь в старую папку куда и должно происходить скачивание новых серий.

Ваш клиент при этом должен произвести хеширование (проверку) старой папки (если не производит сам - помогите ему сделать это), и будет докачивать только те серии которых у вас ещё нет. Старые серии при этом не удаляются, а продолжают раздаваться!

Eсли вы уже удалили старые серии, то предотвратить повторную закачку старых серий можно, отжав галочку в соответсвующих местах при запуске нового торрента.
piratbit.org



Скачать Полярный через торрент https://c.radikal.ru/c09/1910/9f/a333896182a5.jpg Скачать фильм Полярный через торрент бесплантно в хорошем качестве Описание: Эта история о Викторе Громове, бывшем бандите по кличке Витя Мясник. В середине 90-х одно его имя заставляло московских ... 8 10 11
Торрент: Зарегистрирован [2019-11-21 16:56] · скачан: 223 раз
Статус: √ проверено
Размер: 5.27 GB
Как cкачать? Как скачать Полярный через торрент | UTorrent

% Раздел Тема Автор DL S | L
Наши сериалы [ 4.27 GB ] Полярный / Сезон: 1 / Серии: 1-14 из 14 [2019 HDTVRip] bober100 Скачать
1 | 0
TNT serials [ 4.77 GB ] Полярный / Сезон: 1 / Серии: 1-14 из 14 [2019 HDTVRip-AVC] bober100 Скачать
1 | 0
TNT serials [ 5.17 GB ] Полярный / Сезон: 1 / Серии: 1-14 из 14 + фильм о сериале [2019 SATRip] bober100 Скачать
1 | 0
TNT serials [ 13.89 GB ] Полярный / Сезон: 1 / Серии: 1-14 из 14 [2019 HDTV 1080i] bober100 Скачать
1 | 0
TNT serials [ 11.63 GB ] Полярный / Сезон: 1 / Серии: 1-14 из 14 + фильм о сериале [2019 WEB-DL 1080p] bober100 Скачать
3 | 1
TNT serials [ 4.36 GB ] Полярный / Сезон: 1 / Серии: 1-14 из 14 [2019 WEB-DLRip] bober100 Скачать
2 | 0
TNT serials [ 7.61 GB ] Полярный / Сезон: 1 / Серии: 1-14 из 14 [2019 WEB-DL 720p] bober100 Скачать
1 | 0

28-11-2019 20:33  

Отключить всю рекламу на сайте

    Дорогой пользователь! Огромная просьба, поблагодарите релизера, оцените раздачу и оставьте свои комментарий, если Вы скачали Полярный через торрент бесплатно! Внесите свою лепту в развитие PiratBit!
    Комментировать посты могут только пользователи прошедшие не сложную регистрацию
    Показать сообщения:    

    Полярный через торрент
    Скачать бесплатно Полярный
    Полярный скачать торрент
    Полярный смотреть онлайн
    Cкачать фильм Полярный бесплатно
    Полярный скачать торрент в хорошем качестве
    Полярный смотреть онлайн бесплатно в хорошем качестве


    Вы не можете начинать темы
    Вы не можете отвечать на сообщения
    Вы не можете редактировать свои сообщения
    Вы не можете удалять свои сообщения
    Вы не можете голосовать в опросах
    Вы не можете прикреплять файлы к сообщениям
    Вы можете скачивать файлы