1 сезон

3 сезон

iTunes

1

iTunes

DUB Netflix

iTunes

13

1 сезон

RePack

30

Deluxe

pack

Легкие деньги

ВАЖНО

ИГРА 18+

pack

RePack

MK11

RePack

jed

RePack

fifa19

RePack

RDR2

RePack

NEED FOR SPEED™ PAYBACK

4 сезон

9 сезон

Бесстыжие 9 сезон

Все сериалы

все сериалы на PB.wtf

RePack

FAR CRY 5

Anonymous, доброй ночи, мы не успеваем до 1 числа собрать деньги на оплату серверов, помогите нам пожалуйста в это трудное время. В качестве благодарности мы отключим Вам всю рекламу на сайте (укажите свой ник в строку Ваше имя)!

×
  
Magnet ссылка

Полярный / Сезон: 1 / Серии: 1-14 из 14 (Дмитрий Малина, Павел Кривец, Эльдар Джафаргулиев) [2019, комедия, HDTV 1080i] piratbit.org

Полярный через торрент piratbit.org

Размер: 13.89 GB | Добавлен: 1 год 7 мес. назад | Торрент скачан:331 раз
Скачать  

28-10-2019 18:14 Полярный Скачать торрент  

Полярный
Год выпуска: 2019
Страна: Россия
Жанр: комедия
Продолжительность: ~ 00:25:00 (Серия)
Перевод: Не требуется
Субтитры: отсутствуют

Режиссер: Дмитрий Малина, Павел Кривец, Эльдар Джафаргулиев



В ролях: Михаил Пореченков, Иван Охлобыстин, Владимир Епифанцев, Катерина Шпица, Игорь Жижикин, Ян Цапник, Филипп Дьячков (II), Светлана Листова, Карина Зверева, Виктор Бычков, Александр Баширов, Сергей Чирков, Вера Строкова, Игорь Филиппов, Юрий Тузов, Александр Потапов (III), Юрий Назаров, Антон Богданов, Сергей Черданцев, Александр Мосолов

Описание: Виктор Громов, некогда легенда криминальной Москвы по кличке Мясник, давно отошел от дел и коротает дни на загородной ферме. Но в один прекрасный день на ферме появляются его бывшие коллеги по опасному бизнесу и ставят перед фактом – Витя должен передержать на своем банковском счете воровской общак. Он вынужден согласиться. Но в тот самый день, когда Витя должен вернуть деньги, он получает удар по голове и начисто забывает пароль от банковского счета. Спасаясь бегством от бывших подельников, Витя оказывается за тысячи километров от Москвы. В маленьком северном городке под названием Полярный-17…

Качество: HDTV 1080i
Формат: TS

Видео: 1920х1080 (16:9), 25 fps, AVC MPEG-4 (x264), High@L4.0 ~ 5500 kbps , 0.106 bit/pixel
Аудио: 48 kHz, MPEG Layer 2, 2 ch, ~ 192 kbps avg
скриншот  скриншот  скриншот  скриншот  

Общее
Идентификатор : 1 (0x1)
Полное имя : G:Poliarniy.2019.HDTV.(1080i).ExKinoRayPoliarniy.E01.2019.HDTV.(1080i).ExKinoRay.ts
Формат : MPEG-TS
Размер файла : 1,00 Гбайт
Продолжительность : 24 м. 1 с.
Режим общего битрейта : Переменный
Общий поток : 5987 Кбит/сек

Видео
Идентификатор : 211 (0xD3)
Идентификатор меню : 2207 (0x89F)
Формат : AVC
Формат/Информация : Advanced Video Codec
Профиль формата : High@L4
Настройки формата : CABAC / 4 Ref Frames
Параметр CABAC формата : Да
Параметр RefFrames формата : 4 кадра
Идентификатор кодека : 27
Продолжительность : 24 м. 1 с.
Битрейт : 5497 Кбит/сек
Ширина : 1920 пикселей
Высота : 1080 пикселей
Соотношение сторон : 16:9
Частота кадров : 25,000 кадров/сек
Стандарт вещания : Component
Цветовое пространство : YUV
Субдискретизация насыщенности : 4:2:0
Битовая глубина : 8 бит
Тип развёртки : Чересстрочная
Метод сохранения типа развёртки : Раздельные поля
Порядок развёртки : Верхнее поле первое
Бит/(Пиксели*Кадры) : 0.106
Размер потока : 945 Мбайт (92%)
Цветовой диапазон : Limited
Основные цвета : BT.709
Характеристики трансфера : BT.709
Коэффициенты матрицы : BT.709

Аудио
Идентификатор : 221 (0xDD)
Идентификатор меню : 2207 (0x89F)
Формат : MPEG Audio
Версия формата : Version 1
Профиль формата : Layer 2
Идентификатор кодека : 3
Продолжительность : 24 м. 1 с.
Вид битрейта : Постоянный
Битрейт : 192 Кбит/сек
Каналы : 2 канала
Частота : 48,0 КГц
Частота кадров : 41,667 кадра/сек (1152 SPF)
Метод сжатия : С потерями
Размер потока : 33,0 Мбайт (3%)
Язык : Russian

Внимание! Раздача ведётся путём добавления новых серий; при каждом добавлении создfётся новый торрент. Чтобы начать докачку новой серии, пользователям необходимо сделать следующее: (1) остановить скачивание, (2) удалить старый торрент у себя из клиента (старые серии удалять не надо), (3) скачать новый торрент и запустить его у себя в клиенте вместо старого, при этом указать клиенту путь в старую папку куда и должно происходить скачивание новых серий.

Ваш клиент при этом должен произвести хеширование (проверку) старой папки (если не производит сам - помогите ему сделать это), и будет докачивать только те серии которых у вас ещё нет. Старые серии при этом не удаляются, а продолжают раздаваться!

Eсли вы уже удалили старые серии, то предотвратить повторную закачку старых серий можно, отжав галочку в соответсвующих местах при запуске нового торрента.
piratbit.org



Скачать Полярный через торрент https://img15.lostpic.net/2019/10/28/e6d9f35b775364e6eca4e542b0ca81e7.jpg Скачать фильм Полярный через торрент бесплантно в хорошем качестве Описание: Виктор Громов, некогда легенда криминальной Москвы по кличке Мясник, давно отошел от дел и коротает дни на загородной ферме. Но в ... 9.5 10 34
Info! Золотая раздача, скачанное не засчитывается.
Торрент: Зарегистрирован [2019-11-19 18:23] · скачан: 331 раз
Статус: √ проверено
Размер: 13.89 GB
Как cкачать? Как скачать Полярный через торрент | UTorrent

% Раздел Тема Автор DL S | L
Наши сериалы [ 4.27 GB ] Полярный / Сезон: 1 / Серии: 1-14 из 14 [2019 HDTVRip] bober100 Скачать
1 | 0
TNT serials [ 4.77 GB ] Полярный / Сезон: 1 / Серии: 1-14 из 14 [2019 HDTVRip-AVC] bober100 Скачать
1 | 0
TNT serials [ 5.17 GB ] Полярный / Сезон: 1 / Серии: 1-14 из 14 + фильм о сериале [2019 SATRip] bober100 Скачать
1 | 0
TNT serials [ 11.63 GB ] Полярный / Сезон: 1 / Серии: 1-14 из 14 + фильм о сериале [2019 WEB-DL 1080p] bober100 Скачать
3 | 0
TNT serials [ 4.36 GB ] Полярный / Сезон: 1 / Серии: 1-14 из 14 [2019 WEB-DLRip] bober100 Скачать
2 | 0
TNT serials [ 5.27 GB ] Полярный / Сезон: 1 / Серии: 1-14 из 14 [2019 WEB-DLRip-AVC] bober100 Скачать
1 | 0
TNT serials [ 7.61 GB ] Полярный / Сезон: 1 / Серии: 1-14 из 14 [2019 WEB-DL 720p] bober100 Скачать
1 | 0


Последний раз редактировалось: bober100 (2019-11-19 18:23), всего редактировалось 9 раз(а)

28-11-2019 20:33  

Отключить всю рекламу на сайте

01-11-2019 05:51 Полярный Скачать торрент  

неплохой сериал, охлобыстин жжот...piratbit.org



06-11-2019 20:22 Полярный Скачать торрент  

sany31 писал(а):

неплохой сериал, охлобыстин жжот...

ну и че он там жжет??? раз Охлобыстин, сразу жжет. С чего бы вдруг то? Жжет там Антоха из реальных пацанов, вот он жжот!!!piratbit.org



08-11-2019 09:12 Полярный Скачать торрент  

Не кто там не жжот!!! принцип наших сериалов в начале серии жопа в конце серии все разруливает "Главный герой".piratbit.org



    Дорогой пользователь! Огромная просьба, поблагодарите релизера, оцените раздачу и оставьте свои комментарий, если Вы скачали Полярный через торрент бесплатно! Внесите свою лепту в развитие PiratBit!
    Комментировать посты могут только пользователи прошедшие не сложную регистрацию
    Показать сообщения:    

    Полярный через торрент
    Скачать бесплатно Полярный
    Полярный скачать торрент
    Полярный смотреть онлайн
    Cкачать фильм Полярный бесплатно
    Полярный скачать торрент в хорошем качестве
    Полярный смотреть онлайн бесплатно в хорошем качестве


    Вы не можете начинать темы
    Вы не можете отвечать на сообщения
    Вы не можете редактировать свои сообщения
    Вы не можете удалять свои сообщения
    Вы не можете голосовать в опросах
    Вы не можете прикреплять файлы к сообщениям
    Вы можете скачивать файлы