1 сезон

1 сезон

iTunes

1

iTunes

Кинопоиск HD

iTunes

13

1 сезон

RePack

30

Deluxe

ВАЖНО

ИГРА 18+

pack

RePack

MK11
pack

Легкие деньги

RePack

jed

RePack

fifa19

RePack

RDR2

RePack

NEED FOR SPEED™ PAYBACK

4 сезон

9 сезон

Бесстыжие 9 сезон

Все сериалы

все сериалы на PB.wtf

RePack

FAR CRY 5
  
Magnet ссылка

Головой о стену / Gegen die Wand (Фатих Акин) [2004, драма, мелодрама, BDRip (AVC) by msltel] MVO piratbit.org

Головой о стену через торрент piratbit.org

Размер: 3.28 GB | Добавлен: 1 год 6 мес. назад | Торрент скачан:17 раз
Скачать  

31-10-2019 06:52 Головой о стену Скачать торрент  

Название: Головой о стену
Оригинальное название: Gegen die Wand
Год выпуска: 2004
Страна: Германия, Турция
Жанр: драма, мелодрама
Продолжительность: 02:01:53
Перевод: закадровый многоголосый

Режиссер: Фатих Акин
В ролях: Бироль Унел, Сибель Кекилли, Катрин Стрибек, Мельтем Джумбул, Стефан Гебельхофф, Франческо Фианнача, Мона Мур, Ральф Мисске, Филипп Балтус, Герман Лаузе, Карин Нивигер, Демир Гёкгель, Сем Акин, Айсель Исчан, Моника Акин, Кенан Ата, Кахит Айгюлер, Адам Боусдукс, Йильмаз Кенан, Айтун Эде, Селим Эрдоган, Тугай Эрверди, Нуркан Эсмертюрк

О фильме: Сорокалетний турок Джахит Томрук из Мерсина, проживающий в современной Германии, старается избавиться от всего турецкого в своей жизни. После смерти своей любимой жены он попадает в зависимость от алкоголя и наркотиков и живёт, собирая бутылки. Однажды ночью он врезается на своём автомобиле в стену и чудом остаётся жив... Двадцатилетняя Сибель Гюнер из Гамбурга, жаждущая свободы, боится убежать и расстроить своих традиционалистски настроенных родителей-турок после того, как брат, застав её держащейся за руки с молодым парнем, разбил ей нос. Она пытается совершить самоубийство, но попадает в больницу. Там девушка знакомится с Джахитом, которого просит жениться на ней, надеясь вырваться из дома. Она договаривается с Джахитом, что их отношения будут не столько семейными, сколько дружескими, поскольку девушка не намерена ограничивать свою жизнь одним мужчиной... Фильм посвящён жизни эмигрировавших в Германию турок.



Качество: BDRip (AVC)
Формат: MKV
Видео: MPEG-4 AVC, 2959 Kбит/с, 1024x552
Аудио 1: русский, AC3, 448 kbps, 6 ch, 48 kHz [закадровый многоголосый]
Аудио 2: немецкий, AC3, 448 kbps, 6 ch, 48 kHz [оригинал]
Субтитры: русские
Главы/чаптеры
Общее
Уникальный идентификатор : 209296662536271866046140803948991428811 (0x9D75122AB089AE55B3B7B289EED338CB)
Полное имя : D:\Video\Головой об стену.2004.BDRip (AVC) by msltel.mkv
Формат : Matroska
Версия формата : Version 4
Размер файла : 3,28 Гбайт
Продолжительность : 2 ч. 1 м.
Общий поток : 3856 Кбит/сек
Название фильма : Rip by msltel
Дата кодирования : UTC 2019-10-30 11:50:08
Программа кодирования : mkvmerge v8.2.0 ('World of Adventure') 64bit
Библиотека кодирования : libebml v1.3.1 + libmatroska v1.4.2

Видео
Идентификатор : 1
Формат : AVC
Формат/Информация : Advanced Video Codec
Профиль формата : High@L4.1
Настройки формата : CABAC / 9 Ref Frames
Параметр CABAC формата : Да
Параметр RefFrames формата : 9 кадров
Идентификатор кодека : V_MPEG4/ISO/AVC
Продолжительность : 2 ч. 1 м.
Битрейт : 2959 Кбит/сек
Ширина : 1024 пикселя
Высота : 552 пикселя
Соотношение сторон : 1,85:1
Режим частоты кадров : Постоянный
Частота кадров : 24,000 кадра/сек
Цветовое пространство : YUV
Субдискретизация насыщенности : 4:2:0
Битовая глубина : 8 бит
Тип развёртки : Прогрессивная
Бит/(Пиксели*Кадры) : 0.218
Размер потока : 2,52 Гбайт (77%)
Библиотека кодирования : x264 core 157 r2935 545de2f
Настройки программы : cabac=1 / ref=9 / deblock=1:-2:-2 / analyse=0x3:0x113 / me=umh / subme=11 / psy=1 / psy_rd=1.00:0.15 / mixed_ref=1 / me_range=32 / chroma_me=1 / trellis=2 / 8x8dct=1 / cqm=0 / deadzone=21,11 / fast_pskip=0 / chroma_qp_offset=-3 / threads=6 / lookahead_threads=1 / sliced_threads=0 / nr=0 / decimate=1 / interlaced=0 / bluray_compat=0 / constrained_intra=0 / bframes=12 / b_pyramid=2 / b_adapt=2 / b_bias=0 / direct=1 / weightb=1 / open_gop=0 / weightp=2 / keyint=230 / keyint_min=23 / scenecut=40 / intra_refresh=0 / rc_lookahead=40 / rc=crf / mbtree=1 / crf=20.5 / qcomp=0.60 / qpmin=0 / qpmax=69 / qpstep=4 / vbv_maxrate=50000 / vbv_bufsize=62500 / crf_max=0.0 / nal_hrd=none / filler=0 / ip_ratio=1.40 / aq=1:1.00
Язык : German
Default : Да
Forced : Нет

Аудио #1
Идентификатор : 2
Формат : AC-3
Формат/Информация : Audio Coding 3
Коммерческое название : Dolby Digital
Идентификатор кодека : A_AC3
Продолжительность : 2 ч. 1 м.
Вид битрейта : Постоянный
Битрейт : 448 Кбит/сек
Каналы : 6 каналов
ChannelLayout : L R C LFE Ls Rs
Частота : 48,0 КГц
Частота кадров : 31,250 кадров/сек (1536 SPF)
Метод сжатия : С потерями
Размер потока : 391 Мбайт (12%)
Заголовок : MVO
Язык : Russian
ServiceKind/String : Complete Main
Default : Да
Forced : Нет

Аудио #2
Идентификатор : 3
Формат : AC-3
Формат/Информация : Audio Coding 3
Коммерческое название : Dolby Digital
Идентификатор кодека : A_AC3
Продолжительность : 2 ч. 1 м.
Вид битрейта : Постоянный
Битрейт : 448 Кбит/сек
Каналы : 6 каналов
ChannelLayout : L R C LFE Ls Rs
Частота : 48,0 КГц
Частота кадров : 31,250 кадров/сек (1536 SPF)
Метод сжатия : С потерями
Размер потока : 391 Мбайт (12%)
Заголовок : original
Язык : German
ServiceKind/String : Complete Main
Default : Нет
Forced : Нет

Текст
Идентификатор : 4
Формат : UTF-8
Идентификатор кодека : S_TEXT/UTF8
Идентификатор кодека/Информация : UTF-8 Plain Text
Продолжительность : 1 ч. 57 м.
Битрейт : 45 бит/сек
ElementCount : 770
Размер потока : 39,4 Кбайт (0%)
Заголовок : русские
Язык : Russian
Default : Нет
Forced : Нет

Меню
00:00:00.000 : en:Chapter 01
00:09:40.708 : en:Chapter 02
00:20:16.500 : en:Chapter 03
00:28:49.583 : en:Chapter 04
00:36:11.875 : en:Chapter 05
00:45:07.500 : en:Chapter 06
00:56:48.541 : en:Chapter 07
01:07:49.250 : en:Chapter 08
01:16:25.750 : en:Chapter 09
01:24:58.791 : en:Chapter 10
01:34:04.791 : en:Chapter 11
01:44:46.500 : en:Chapter 12
piratbit.org



Скачать Головой о стену через торрент https://c.radikal.ru/c24/1910/bd/f73515403e5e.jpg Скачать фильм Головой о стену через торрент бесплантно в хорошем качестве О фильме: Сорокалетний турок Джахит Томрук из Мерсина, проживающий в современной Германии, старается избавиться от всего турецкого в своей ... 5 10 1
Торрент: Зарегистрирован [2019-10-31 06:52] · скачан: 17 раз
Статус: √ проверено
Размер: 3.28 GB
Как cкачать? Как скачать Головой о стену через торрент | UTorrent

% Раздел Тема Автор DL S | L
Фильмы [HD 720p, 1080p] (Хороший звук DUB, MVO) [ 15.98 GB ] Головой о стену / Gegen die Wand [2004 BDRip 1080p by msltel] MVO msltel Скачать
1 | 0

28-11-2019 20:33  

Отключить всю рекламу на сайте


    Дорогой пользователь! Огромная просьба, поблагодарите релизера, оцените раздачу и оставьте свои комментарий, если Вы скачали Головой о стену через торрент бесплатно! Внесите свою лепту в развитие PiratBit!
    Комментировать посты могут только пользователи прошедшие не сложную регистрацию
    Показать сообщения:    

    Головой о стену через торрент
    Скачать бесплатно Головой о стену
    Головой о стену скачать торрент
    Головой о стену смотреть онлайн
    Cкачать фильм Головой о стену бесплатно
    Головой о стену скачать торрент в хорошем качестве
    Головой о стену смотреть онлайн бесплатно в хорошем качестве


    Вы не можете начинать темы
    Вы не можете отвечать на сообщения
    Вы не можете редактировать свои сообщения
    Вы не можете удалять свои сообщения
    Вы не можете голосовать в опросах
    Вы не можете прикреплять файлы к сообщениям
    Вы можете скачивать файлы